微博 微信

Hao4K影音

电视剧频道
电视剧封面:
电视剧名: 夜色中的地球 第一季4k
年  代: 2020  
国  家: 美国
类  别: 纪录片 
语  言: 英语
字  幕: 英文原版
上映日期:
文件格式: mkv    
视频效果: 4K(3840x2160)    
资源大小: 29.24 GB
片  长: 30 分钟
导  演: Alex Williamson
剧情简介: 该剧在六大洲拍摄,去到北极圈、非洲草原等,用尖端摄像技术揭示前所未见的黑暗降临后的动物活动,“如同光天化日下一样清晰”。
夜色中的地球 第一季4k Earth.at.Night.in.Color.S01.2160p.ATVP.WEB-DL.DDP5.1.Atmos.DV.x265-4k纪录片信息
  1. Video
  2. ID : 1
  3. Format : HEVC
  4. Format/Info : High Efficiency Video Coding
  5. Format profile : Main 10@L5@High
  6. HDR format : Dolby Vision, Version 1.0, dvhe.05.06, BL+RPU
  7. Codec ID : dvhe
  8. Codec ID/Info : High Efficiency Video Coding with Dolby Vision
  9. Duration : 29 min 9 s
  10. Bit rate : 24.4 Mb/s
  11. Width : 3 840 pixels
  12. Height : 2 160 pixels
  13. Display aspect ratio : 16:9
  14. Frame rate mode : Constant
  15. Frame rate : 23.976 (23976/1000) FPS
  16. Color space : YUV
  17. Chroma subsampling : 4:2:0
  18. Bit depth : 10 bits
  19. Bits/(Pixel*Frame) : 0.123
  20. Stream size : 4.98 GiB (97%)
  21. Default : Yes
  22. Alternate group : 1
  23. Encoded date : UTC 2021-06-11 23:28:25
  24. Tagged date : UTC 2021-06-11 23:28:50
  25. Codec configuration box : hvcC+dvcC

  26. Audio
  27. ID : 2
  28. Format : E-AC-3 JOC
  29. Format/Info : Enhanced AC-3 with Joint Object Coding
  30. Commercial name : Dolby Digital Plus with Dolby Atmos
  31. Codec ID : ec-3
  32. Duration : 29 min 9 s
  33. Bit rate mode : Constant
  34. Bit rate : 768 kb/s
  35. Maximum bit rate : 811 kb/s
  36. Channel(s) : 6 channels
  37. Channel layout : L R C LFE Ls Rs
  38. Sampling rate : 48.0 kHz
  39. Frame rate : 31.250 FPS (1536 SPF)
  40. Compression mode : Lossy
  41. Stream size : 160 MiB (3%)
  42. Title : English
  43. Language : English
  44. Service kind : Complete Main
  45. Encoded date : UTC 2021-06-11 23:27:32
  46. Tagged date : UTC 2021-06-11 23:28:50
  47. Complexity index : Not present / 16
  48. Number of dynamic objects : 15
  49. Bed channel count : 1 channel
  50. Bed channel configuration : LFE

  51. Text #1
  52. ID : 3
  53. Format : Timed Text
  54. Codec ID : tx3g
  55. Duration : 28 min 23 s
  56. Bit rate mode : Variable
  57. Bit rate : 46 b/s
  58. Stream size : 9.63 KiB (0%)
  59. Title : English
  60. Language : English
  61. Forced : No
  62. Encoded date : UTC 2021-06-11 23:28:48
  63. Tagged date : UTC 2021-06-11 23:28:50

  64. Text #2
  65. ID : 4
  66. Format : Timed Text
  67. Codec ID : tx3g
  68. Duration : 29 min 5 s
  69. Bit rate mode : Variable
  70. Bit rate : 65 b/s
  71. Stream size : 13.8 KiB (0%)
  72. Title : العربية
  73. Language : Arabic
  74. Forced : No
  75. Encoded date : UTC 2021-06-11 23:28:48
  76. Tagged date : UTC 2021-06-11 23:28:50

  77. Text #3
  78. ID : 5
  79. Format : Timed Text
  80. Codec ID : tx3g
  81. Duration : 29 min 5 s
  82. Bit rate mode : Variable
  83. Bit rate : 72 b/s
  84. Stream size : 15.3 KiB (0%)
  85. Title : български
  86. Language : Bulgarian
  87. Forced : No
  88. Encoded date : UTC 2021-06-11 23:28:48
  89. Tagged date : UTC 2021-06-11 23:28:50

  90. Text #4
  91. ID : 6
  92. Format : Timed Text
  93. Codec ID : tx3g
  94. Duration : 29 min 5 s
  95. Bit rate mode : Variable
  96. Bit rate : 42 b/s
  97. Stream size : 8.99 KiB (0%)
  98. Title : 中文(简体)
  99. Language : cmn
  100. Forced : No
  101. Encoded date : UTC 2021-06-11 23:28:48
  102. Tagged date : UTC 2021-06-11 23:28:50

  103. Text #5
  104. ID : 7
  105. Format : Timed Text
  106. Codec ID : tx3g
  107. Duration : 29 min 5 s
  108. Bit rate mode : Variable
  109. Bit rate : 42 b/s
  110. Stream size : 9.02 KiB (0%)
  111. Title : 中文(繁體)
  112. Language : cmn
  113. Forced : No
  114. Encoded date : UTC 2021-06-11 23:28:48
  115. Tagged date : UTC 2021-06-11 23:28:50

  116. Text #6
  117. ID : 8
  118. Format : Timed Text
  119. Codec ID : tx3g
  120. Duration : 29 min 5 s
  121. Bit rate mode : Variable
  122. Bit rate : 49 b/s
  123. Stream size : 10.5 KiB (0%)
  124. Title : Čeština
  125. Language : Czech
  126. Forced : No
  127. Encoded date : UTC 2021-06-11 23:28:48
  128. Tagged date : UTC 2021-06-11 23:28:50

  129. Text #7
  130. ID : 9
  131. Format : Timed Text
  132. Codec ID : tx3g
  133. Duration : 29 min 5 s
  134. Bit rate mode : Variable
  135. Bit rate : 45 b/s
  136. Stream size : 9.58 KiB (0%)
  137. Title : dansk
  138. Language : Danish
  139. Forced : No
  140. Encoded date : UTC 2021-06-11 23:28:48
  141. Tagged date : UTC 2021-06-11 23:28:50
复制代码

夜色中的地球 第一季4k Earth.at.Night.in.Color.S01.2160p.ATVP.WEB-DL.DDP5.1.Atmos.DV.x265-4k纪录片下载
夜色中的地球 第一季4k Earth.at.Night.in.Color.S01.2160p.ATVP.WEB-DL.DDP5.1.Atmos.DV.x265杜比视界版本【29.24GB】
[Hao4k]夜色中的地球 第一季4k Earth.at.Night.in.Color.S01.2160p.ATVP.WEB-DL.DDP5..torrent (74.41 KB)
回复

使用道具 举报

全部回复7

lndlyuang 发表于 2021-7-15 22:53:28

lndlyuang 推荐

2021-7-15 22:53:28

好片子,感谢分享。
回复 支持 1 反对 0

使用道具 举报

gycsspc 发表于 2021-7-17 11:53:41

gycsspc 3

2021-7-17 11:53:41

lndlyuang 发表于 2021-7-15 22:53
好片子,感谢分享。

你好,你可以正常播放吗?我用杜恩的硬盘播放机内部播放器,kodi,vlc都不能播放。
回复 支持 反对

使用道具 举报

jsj421 发表于 2021-7-19 10:19:41

jsj421 4

2021-7-19 10:19:41

gycsspc 发表于 2021-7-17 11:53
你好,你可以正常播放吗?我用杜恩的硬盘播放机内部播放器,kodi,vlc都不能播放。

DV.x265 支持这种格式的播放器不多,我下的loki第六集也是这个格式,各种播放器都不正常
回复 支持 反对

使用道具 举报

ps555 发表于 2021-7-22 10:56:47

ps555 5

2021-7-22 10:56:47

实测芝杜Z9X无法播放此视频。
回复 支持 反对

使用道具 举报

ps555 发表于 2021-7-22 22:32:16

ps555 6

2021-7-22 22:32:16

经测试,芝杜Z9X升级到最新版本这个视频即可正常播放。
回复 支持 反对

使用道具 举报

月球上的人 发表于 6 天前

月球上的人 7

6 天前

什么叫不能正常播放?杜比还要电视支撑吧
回复 支持 反对

使用道具 举报

DIYIYAN 发表于 3 天前

DIYIYAN 8

3 天前

这视频值得慢慢欣赏
回复 支持 反对

使用道具 举报

   发表回复

您需要登录后才可以回帖 登录 | 立即注册

返回列表 本版积分规则

  • 在线客服

  • 返回顶部