微博 微信

Hao4K影音

电视剧频道
电视剧封面:
电视剧名: 怪兽上班4k
年  代: 2021  
国  家: 美国
类  别: 喜剧 奇幻 动画 
语  言: 英语
字  幕: 英文原版
上映日期: 2021-07-07
文件格式: mkv    
视频效果: 4K(3840x2160)    
资源大小: 2.94 GB
片  长: -
导  演: 罗伯·吉布斯 / Kate Good
剧情简介: 皮克斯知名动画《怪兽电力公司》《怪兽大学》将拍衍生剧集,登陆迪士尼流媒体Disney+,最新宣布大量信息:剧名为《怪兽上班》(Monsters At Work,暂译),2020年推出,电影版配音“大眼仔”比利·克里斯托和“毛怪”约翰·古德曼等都回归继续配音。设定在《怪兽电力公司》背景时间后六个月,怪物电力公司如今能够靠着收获孩子们的笑声而不是尖叫来为城市发电,多亏了大眼和毛怪的发现,笑声能产生比尖叫强十倍的能量。
  剧集主角将是新人:Tylor Tuskmon(《百味超市》的本·费德曼配音),怪物电力公司的一名年轻技工,雄心勃勃,想要加入他的爱豆大眼和毛怪所在的“笑声层”,成为一名创造笑声的“Jokester”。《星球大战8》的“Rose”凯莉·玛丽·陈将配音他的一生好友和知己Val Little。
工作怪兽 / 怪兽在工作 / 怪兽开工/怪兽上班4k Monsters.at.Work.S01E01.HDR.2160p.WEB.H265-4k美剧信息
  1. Video
  2. ID : 1
  3. Format : HEVC
  4. Format/Info : High Efficiency Video Coding
  5. Format profile : Main 10@L5@High
  6. HDR format : SMPTE ST 2086, HDR10 compatible
  7. Codec ID : V_MPEGH/ISO/HEVC
  8. Duration : 24 min 35 s
  9. Bit rate : 16.2 Mb/s
  10. Width : 3 840 pixels
  11. Height : 2 160 pixels
  12. Display aspect ratio : 16:9
  13. Frame rate mode : Constant
  14. Frame rate : 23.976 (24000/1001) FPS
  15. Color space : YUV
  16. Chroma subsampling : 4:2:0
  17. Bit depth : 10 bits
  18. Bits/(Pixel*Frame) : 0.082
  19. Stream size : 2.78 GiB (98%)
  20. Default : Yes
  21. Forced : No
  22. Color range : Limited
  23. Color primaries : BT.2020
  24. Transfer characteristics : PQ
  25. Matrix coefficients : BT.2020 non-constant
  26. Mastering display color primaries : Display P3
  27. Mastering display luminance : min: 0.0000 cd/m2, max: 1000 cd/m2

  28. Audio
  29. ID : 2
  30. Format : E-AC-3
  31. Format/Info : Enhanced AC-3
  32. Commercial name : Dolby Digital Plus
  33. Codec ID : A_EAC3
  34. Duration : 24 min 35 s
  35. Bit rate mode : Constant
  36. Bit rate : 256 kb/s
  37. Channel(s) : 6 channels
  38. Channel layout : L R C LFE Ls Rs
  39. Sampling rate : 48.0 kHz
  40. Frame rate : 31.250 FPS (1536 SPF)
  41. Compression mode : Lossy
  42. Stream size : 45.0 MiB (2%)
  43. Title : English
  44. Language : English
  45. Service kind : Complete Main
  46. Default : No
  47. Forced : No

  48. Text #1
  49. ID : 3
  50. Format : UTF-8
  51. Codec ID : S_TEXT/UTF8
  52. Codec ID/Info : UTF-8 Plain Text
  53. Duration : 23 min 55 s
  54. Bit rate : 73 b/s
  55. Count of elements : 309
  56. Stream size : 12.9 KiB (0%)
  57. Title : Danish
  58. Language : Danish
  59. Default : No
  60. Forced : No

  61. Text #2
  62. ID : 4
  63. Format : UTF-8
  64. Codec ID : S_TEXT/UTF8
  65. Codec ID/Info : UTF-8 Plain Text
  66. Duration : 23 min 55 s
  67. Bit rate : 73 b/s
  68. Count of elements : 330
  69. Stream size : 12.8 KiB (0%)
  70. Title : Dutch
  71. Language : Dutch
  72. Default : No
  73. Forced : No

  74. Text #3
  75. ID : 5
  76. Format : UTF-8
  77. Codec ID : S_TEXT/UTF8
  78. Codec ID/Info : UTF-8 Plain Text
  79. Duration : 24 min 24 s
  80. Bit rate : 90 b/s
  81. Count of elements : 427
  82. Stream size : 16.2 KiB (0%)
  83. Title : English SDH
  84. Language : English
  85. Default : No
  86. Forced : No

  87. Text #4
  88. ID : 6
  89. Format : UTF-8
  90. Codec ID : S_TEXT/UTF8
  91. Codec ID/Info : UTF-8 Plain Text
  92. Duration : 23 min 54 s
  93. Bit rate : 84 b/s
  94. Count of elements : 389
  95. Stream size : 14.8 KiB (0%)
  96. Title : English
  97. Language : English
  98. Default : No
  99. Forced : No

  100. Text #5
  101. ID : 7
  102. Format : UTF-8
  103. Codec ID : S_TEXT/UTF8
  104. Codec ID/Info : UTF-8 Plain Text
  105. Duration : 23 min 55 s
  106. Bit rate : 66 b/s
  107. Count of elements : 393
  108. Stream size : 11.6 KiB (0%)
  109. Title : Finnish
  110. Language : Finnish
  111. Default : No
  112. Forced : No

  113. Text #6
  114. ID : 8
  115. Format : UTF-8
  116. Codec ID : S_TEXT/UTF8
  117. Codec ID/Info : UTF-8 Plain Text
  118. Duration : 23 min 52 s
  119. Bit rate : 69 b/s
  120. Count of elements : 382
  121. Stream size : 12.2 KiB (0%)
  122. Title : French Canadian
  123. Language : French
  124. Default : No
  125. Forced : No

  126. Text #7
  127. ID : 9
  128. Format : UTF-8
  129. Codec ID : S_TEXT/UTF8
  130. Codec ID/Info : UTF-8 Plain Text
  131. Duration : 23 min 55 s
  132. Bit rate : 70 b/s
  133. Count of elements : 382
  134. Stream size : 12.3 KiB (0%)
  135. Title : French
  136. Language : French
  137. Default : No
  138. Forced : No
复制代码

工作怪兽 / 怪兽在工作 / 怪兽开工/怪兽上班4k Monsters.at.Work.S01E01.HDR.2160p.WEB.H265-4k美剧下载

怪兽上班4k Monsters.at.Work.S01E01.HDR.2160p.WEB.H265【2.94GB】
[Hao4k]怪兽上班4k Monsters.at.Work.S01E01.HDR.2160p.WEB.H265-EXPLOIT.torrent (30.23 KB)
回复

使用道具 举报

全部回复2

用户名1 发表于 2021-7-15 16:12:17

用户名1 2

2021-7-15 16:12:17

这是电影还是电视剧?
回复 支持 反对

使用道具 举报

liguaren 发表于 昨天 09:22

liguaren 3

昨天 09:22

等出全了再下吧。这估计都没字幕
回复 支持 反对

使用道具 举报

   发表回复

您需要登录后才可以回帖 登录 | 立即注册

返回列表 本版积分规则

  • 在线客服

  • 返回顶部