微博 微信

Hao4K影音

电影频道
电影封面:
片  名: Through.Her.Eyes
电影分类: 其他 
国  家: 美国 
年  代: 2021年
分 辨 率: 4K(3840x2160)
电影格式: MKV|REMUX 
画质标准: SDR 
音质编码: 其他AAC 
电影声道: 2.0声道 
帧数/FPS: 23.976 帧
电影语言: 英文原版 
资源大小: 9.71 GB
导  演: 特伦顿·兰普金
豆瓣评分:
中文字幕: -
剧情简介: 根据真实生活事件改编。通过她的眼睛是一部关于一个非洲裔美国青少年在自尊中挣扎的戏剧;谁在决定就读一所新融合的学校后,必须找到参加入学考试的信心,同时面临种族偏见。
Through.Her.Eyes.2021.2160p.WEB-DL.x265.10bit.SDR.AAC2.0-4k电影信息
  1. Video
  2. ID : 1
  3. Format : HEVC
  4. Format/Info : High Efficiency Video Coding
  5. Format profile : Main 10@L5@High
  6. Codec ID : V_MPEGH/ISO/HEVC
  7. Duration : 1 h 6 min
  8. Bit rate : 20.7 Mb/s
  9. Width : 3 840 pixels
  10. Height : 1 920 pixels
  11. Display aspect ratio : 2.000
  12. Frame rate mode : Constant
  13. Frame rate : 23.976 (24000/1001) FPS
  14. Color space : YUV
  15. Chroma subsampling : 4:2:0
  16. Bit depth : 10 bits
  17. Bits/(Pixel*Frame) : 0.117
  18. Stream size : 9.64 GiB (99%)
  19. Default : Yes
  20. Forced : No
  21. Color range : Limited
  22. Color primaries : BT.709
  23. Transfer characteristics : BT.709
  24. Matrix coefficients : BT.709

  25. Audio
  26. ID : 2
  27. Format : AAC LC
  28. Format/Info : Advanced Audio Codec Low Complexity
  29. Codec ID : A_AAC-2
  30. Duration : 1 h 6 min
  31. Bit rate : 154 kb/s
  32. Channel(s) : 2 channels
  33. Channel layout : L R
  34. Sampling rate : 48.0 kHz
  35. Frame rate : 46.875 FPS (1024 SPF)
  36. Compression mode : Lossy
  37. Stream size : 73.2 MiB (1%)
  38. Title : English
  39. Language : English
  40. Default : No
  41. Forced : No

  42. Text #1
  43. ID : 3
  44. Format : UTF-8
  45. Codec ID : S_TEXT/UTF8
  46. Codec ID/Info : UTF-8 Plain Text
  47. Duration : 1 h 1 min
  48. Bit rate : 68 b/s
  49. Count of elements : 934
  50. Stream size : 30.8 KiB (0%)
  51. Title : English [SDH]
  52. Language : English
  53. Default : No
  54. Forced : No

  55. Text #2
  56. ID : 4
  57. Format : UTF-8
  58. Codec ID : S_TEXT/UTF8
  59. Codec ID/Info : UTF-8 Plain Text
  60. Duration : 1 h 1 min
  61. Bit rate : 55 b/s
  62. Count of elements : 781
  63. Stream size : 25.1 KiB (0%)
  64. Title : English
  65. Language : English
  66. Default : No
  67. Forced : No
复制代码

Through.Her.Eyes.2021.2160p.WEB-DL.x265.10bit.SDR.AAC2.0-4k电影下载
Through.Her.Eyes.2021.2160p.WEB-DL.x265.10bit.SDR.AAC2.0【9.71GB】
[Hao4k]Through.Her.Eyes.2021.2160p.WEB-DL.x265.10bit.SDR.AAC2.0-CM.torrent (24.92 KB)
回复

使用道具 举报

全部回复7

dyczw 发表于 2021-7-15 08:03:24

dyczw 2

2021-7-15 08:03:24

每天坚持登录论坛,看看有什么新电影!
回复 支持 反对

使用道具 举报

dk30129 发表于 2021-7-15 08:48:53

dk30129 3

2021-7-15 08:48:53

谢谢分享,顶你!!!

免费评分

参与人数 1违规 +1 收起 理由
花落无声 + 1 违反规则:多个主题回复相同内容(第五章1/.

查看全部评分

回复 支持 反对

使用道具 举报

siankou 发表于 2021-7-15 08:53:24

siankou 4

2021-7-15 08:53:24

最近怎么都是web-DL格式的了?
回复 支持 反对

使用道具 举报

xxw8888 发表于 2021-7-16 11:36:51

xxw8888 5

2021-7-16 11:36:51


谢谢分享

免费评分

参与人数 1违规 +1 收起 理由
花落无声 + 1 违反规则:多个主题回复相同内容(第五章1/.

查看全部评分

回复 支持 反对

使用道具 举报

zhp961031 发表于 2021-7-17 23:32:00

zhp961031 6

2021-7-17 23:32:00


感谢分享!!!!!速度确实很快
回复 支持 反对

使用道具 举报

jackss 发表于 2021-7-18 13:01:25

jackss 7

2021-7-18 13:01:25

谢谢楼主分享
回复 支持 反对

使用道具 举报

过去 发表于 2021-7-20 15:09:54

过去 8

2021-7-20 15:09:54

谢谢楼主的分享
回复 支持 反对

使用道具 举报

   发表回复

您需要登录后才可以回帖 登录 | 立即注册

返回列表 本版积分规则

  • 在线客服

  • 返回顶部