微博 微信

Hao4K影音

电影频道
电影封面:
片  名: 死于枪战4k
电影分类: 动作 犯罪 喜剧 爱情片 
国  家: 美国 
年  代: 2021年
分 辨 率: 4K(3840x2160)
电影格式: MKV|REMUX 
画质标准: SDR 
音质编码: DTS-HD Master Audio 
电影声道: 5.1声道 
帧数/FPS: 23.976 帧
电影语言: 英文原版 
资源大小: 10.04 GB
导  演: 科林·希夫利
豆瓣评分: 4.2 分
中文字幕: /thread-59515-1-1.html
剧情简介: A young New Yorker falls in love with the daughter of his father\'s nemesis, setting in motion a Romeo and Juliet-like forbidden romance.
枪战之死/死于枪战4k Die.in.a.Gunfight.2021.2160p.WEB-DL.x265.10bit.SDR.DTS-HD.MA.5.1-4k电影信息
  1. Video
  2. ID : 1
  3. Format : HEVC
  4. Format/Info : High Efficiency Video Coding
  5. Format profile : Main 10@L5@High
  6. Codec ID : V_MPEGH/ISO/HEVC
  7. Duration : 1 h 32 min
  8. Bit rate : 11.8 Mb/s
  9. Width : 3 828 pixels
  10. Height : 1 592 pixels
  11. Display aspect ratio : 2.40:1
  12. Frame rate mode : Constant
  13. Frame rate : 23.976 (23976/1000) FPS
  14. Color space : YUV
  15. Chroma subsampling : 4:2:0
  16. Bit depth : 10 bits
  17. Bits/(Pixel*Frame) : 0.081
  18. Stream size : 7.63 GiB (76%)
  19. Default : Yes
  20. Forced : No
  21. Color range : Limited
  22. Color primaries : BT.709
  23. Transfer characteristics : BT.709
  24. Matrix coefficients : BT.709

  25. Audio #1
  26. ID : 2
  27. Format : DTS XLL
  28. Format/Info : Digital Theater Systems
  29. Commercial name : DTS-HD Master Audio
  30. Codec ID : A_DTS
  31. Duration : 1 h 32 min
  32. Bit rate mode : Variable
  33. Bit rate : 3 310 kb/s
  34. Channel(s) : 6 channels
  35. Channel layout : C L R Ls Rs LFE
  36. Sampling rate : 48.0 kHz
  37. Frame rate : 93.750 FPS (512 SPF)
  38. Bit depth : 24 bits
  39. Compression mode : Lossless
  40. Stream size : 2.13 GiB (21%)
  41. Title : DTS-HD MA 5.1
  42. Language : English
  43. Default : Yes
  44. Forced : No

  45. Audio #2
  46. ID : 3
  47. Format : AC-3
  48. Format/Info : Audio Coding 3
  49. Commercial name : Dolby Digital
  50. Codec ID : A_AC3
  51. Duration : 1 h 32 min
  52. Bit rate mode : Constant
  53. Bit rate : 384 kb/s
  54. Channel(s) : 6 channels
  55. Channel layout : L R C LFE Ls Rs
  56. Sampling rate : 48.0 kHz
  57. Frame rate : 31.250 FPS (1536 SPF)
  58. Compression mode : Lossy
  59. Stream size : 253 MiB (2%)
  60. Title : DD 5.1
  61. Language : English
  62. Service kind : Complete Main
  63. Default : No
  64. Forced : No

  65. Text #1
  66. ID : 4
  67. Format : UTF-8
  68. Codec ID : S_TEXT/UTF8
  69. Codec ID/Info : UTF-8 Plain Text
  70. Duration : 1 h 28 min
  71. Bit rate : 56 b/s
  72. Count of elements : 1142
  73. Stream size : 36.6 KiB (0%)
  74. Title : SRT
  75. Language : English
  76. Default : Yes
  77. Forced : No

  78. Text #2
  79. ID : 5
  80. Format : PGS
  81. Muxing mode : zlib
  82. Codec ID : S_HDMV/PGS
  83. Codec ID/Info : Picture based subtitle format used on BDs/HD-DVDs
  84. Duration : 1 h 28 min
  85. Bit rate : 39.3 kb/s
  86. Count of elements : 2550
  87. Stream size : 24.9 MiB (0%)
  88. Language : English
  89. Default : No
  90. Forced : No

  91. Text #3
  92. ID : 6
  93. Format : PGS
  94. Muxing mode : zlib
  95. Codec ID : S_HDMV/PGS
  96. Codec ID/Info : Picture based subtitle format used on BDs/HD-DVDs
  97. Duration : 1 h 31 min
  98. Bit rate : 33.0 kb/s
  99. Count of elements : 2144
  100. Stream size : 21.5 MiB (0%)
  101. Title : Latin American
  102. Language : Spanish
  103. Default : No
  104. Forced : No

  105. Menu
  106. 00:00:00.000 : Chapter 01
  107. 00:03:25.664 : Chapter 02
  108. 00:13:18.631 : Chapter 03
  109. 00:16:12.638 : Chapter 04
  110. 00:24:09.281 : Chapter 05
  111. 00:28:33.170 : Chapter 06
  112. 00:35:19.993 : Chapter 07
  113. 00:38:37.899 : Chapter 08
  114. 00:44:13.109 : Chapter 09
  115. 00:47:35.186 : Chapter 10
  116. 00:55:41.463 : Chapter 11
  117. 00:58:39.725 : Chapter 12
  118. 01:02:52.477 : Chapter 13
  119. 01:08:55.798 : Chapter 14
  120. 01:13:28.362 : Chapter 15
  121. 01:22:39.163 : Chapter 16
复制代码

枪战之死/死于枪战4k Die.in.a.Gunfight.2021.2160p.WEB-DL.x265.10bit.SDR.DTS-HD.MA.5.1-4k电影下载
死于枪战4k Die.in.a.Gunfight.2021.2160p.WEB-DL.x265.10bit.SDR.DTS-HD.MA.5.1【10.04GB】
[Hao4k]死于枪战4k Die.in.a.Gunfight.2021.2160p.WEB-DL.x265.10bit.SDR.DTS-HD.MA.5.torrent (13.22 KB)
回复

使用道具 举报

全部回复13

豌逗 发表于 2021-7-16 16:57:21

豌逗 2

2021-7-16 16:57:21

楼主辛苦了,虽然电影传的不少,但是质量参差不齐
回复 支持 反对

使用道具 举报

bbgrnnji 发表于 2021-7-16 20:03:42

bbgrnnji 3

2021-7-16 20:03:42

评分太低了,不下了
回复 支持 反对

使用道具 举报

zhan198239 发表于 2021-7-16 20:50:30

zhan198239 4

2021-7-16 20:50:30

感谢楼主分享

免费评分

参与人数 1违规 +1 收起 理由
花落无声 + 1 违反论坛规则:多个主题回复相同内容(第五章第1条)

查看全部评分

回复 支持 反对

使用道具 举报

panbell 发表于 2021-7-17 10:17:18

panbell 5

2021-7-17 10:17:18

谢谢分享
回复 支持 反对

使用道具 举报

ckyq 发表于 2021-7-17 12:15:04

ckyq 6

2021-7-17 12:15:04

感谢楼主分享
回复 支持 反对

使用道具 举报

liyun80000 发表于 2021-7-17 12:40:52

liyun80000 7

2021-7-17 12:40:52

谢谢楼主分享
回复 支持 反对

使用道具 举报

周末咖啡 发表于 2021-7-17 15:53:17

周末咖啡 8

2021-7-17 15:53:17

感谢楼主分享
回复 支持 反对

使用道具 举报

coloursun 发表于 2021-7-17 23:17:31

coloursun 9

2021-7-17 23:17:31

感谢分享
回复 支持 反对

使用道具 举报

zippojiang 发表于 2021-7-18 15:15:33

zippojiang 10

2021-7-18 15:15:33

谢谢楼主发布
回复 支持 反对

使用道具 举报

xiao871196 发表于 2021-7-21 20:53:58

xiao871196 11

2021-7-21 20:53:58

谢谢楼主 辛苦了
回复 支持 反对

使用道具 举报

zsad 发表于 2021-7-23 12:54:39

zsad 12

2021-7-23 12:54:39

谢谢楼主分享
回复 支持 反对

使用道具 举报

黎叔 发表于 2021-7-25 14:06:53 Hao4K手机版

黎叔 13

2021-7-25 14:06:53

谢谢分享
回复 支持 反对

使用道具 举报

glmis007 发表于 2021-7-27 10:54:55

glmis007 14

2021-7-27 10:54:55


谢谢楼主 辛苦了
回复 支持 反对

使用道具 举报

   发表回复

您需要登录后才可以回帖 登录 | 立即注册

返回列表 本版积分规则

  • 在线客服

  • 返回顶部