微博 微信

Hao4K影音

电影频道
电影封面:
片  名: 黑寡妇4K
电影分类: 动作 科幻 冒险 
国  家: 美国 
年  代: 2021年
分 辨 率: 4K(3840x2160)
电影格式: MKV|REMUX 
画质标准: HDR Dolby Vision 
音质编码: Dolby Digital Plus Audio 
电影声道: 5.1声道 
帧数/FPS: 23.976 帧
电影语言: 英文原版 
资源大小: 16.01 GB
导  演: 凯特·绍特兰 Cate Shortland
豆瓣评分: 6.6 分
中文字幕: -
剧情简介: 一部充满动作戏的间谍惊悚片。娜塔莎·罗曼诺夫/黑寡妇遭遇与她的过去相关的一场危险阴谋,将直面自己那些更为黑暗的经历。一股不惜一切要击倒她的力量袭来,娜塔莎必须面对自己在成为复仇者的很久之前那作为间谍的过往,和曾远离的破碎关系。
The Black Widow/黑寡妇4K.Black.Widow.2021.2160p.DSNP.WEB-DL.x265.10bit.HDR.DDP5.1.Atmos-4k杜比视界电影信息
  1. Video
  2. ID : 1
  3. Format : HEVC
  4. Format/Info : High Efficiency Video Coding
  5. Format profile : Main 10@L5@High
  6. HDR format : SMPTE ST 2086, HDR10 compatible
  7. Codec ID : V_MPEGH/ISO/HEVC
  8. Duration : 2 h 13 min
  9. Bit rate : 16.4 Mb/s
  10. Width : 3 840 pixels
  11. Height : 2 160 pixels
  12. Display aspect ratio : 16:9
  13. Frame rate mode : Constant
  14. Frame rate : 23.976 (24000/1001) FPS
  15. Color space : YUV
  16. Chroma subsampling : 4:2:0
  17. Bit depth : 10 bits
  18. Bits/(Pixel*Frame) : 0.082
  19. Stream size : 15.3 GiB (95%)
  20. Default : Yes
  21. Forced : No
  22. Color range : Limited
  23. Color primaries : BT.2020
  24. Transfer characteristics : PQ
  25. Matrix coefficients : BT.2020 non-constant
  26. Mastering display color primaries : Display P3
  27. Mastering display luminance : min: 0.0050 cd/m2, max: 4000 cd/m2

  28. Audio
  29. ID : 2
  30. Format : E-AC-3 JOC
  31. Format/Info : Enhanced AC-3 with Joint Object Coding
  32. Commercial name : Dolby Digital Plus with Dolby Atmos
  33. Codec ID : A_EAC3
  34. Duration : 2 h 13 min
  35. Bit rate mode : Constant
  36. Bit rate : 768 kb/s
  37. Channel(s) : 6 channels
  38. Channel layout : L R C LFE Ls Rs
  39. Sampling rate : 48.0 kHz
  40. Frame rate : 31.250 FPS (1536 SPF)
  41. Compression mode : Lossy
  42. Stream size : 735 MiB (4%)
  43. Title : English
  44. Language : English
  45. Service kind : Complete Main
  46. Default : No
  47. Forced : No
  48. Complexity index : 16
  49. Number of dynamic objects : 15
  50. Bed channel count : 1 channel
  51. Bed channel configuration : LFE

  52. Text #1
  53. ID : 3
  54. Format : UTF-8
  55. Codec ID : S_TEXT/UTF8
  56. Codec ID/Info : UTF-8 Plain Text
  57. Duration : 2 h 12 min
  58. Bit rate : 40 b/s
  59. Count of elements : 1301
  60. Stream size : 39.4 KiB (0%)
  61. Title : Spanish
  62. Language : Spanish
  63. Default : No
  64. Forced : No

  65. Text #2
  66. ID : 4
  67. Format : UTF-8
  68. Codec ID : S_TEXT/UTF8
  69. Codec ID/Info : UTF-8 Plain Text
  70. Duration : 2 h 12 min
  71. Bit rate : 43 b/s
  72. Count of elements : 1319
  73. Stream size : 42.7 KiB (0%)
  74. Title : French Canadian
  75. Language : French
  76. Default : No
  77. Forced : No

  78. Text #3
  79. ID : 5
  80. Format : UTF-8
  81. Codec ID : S_TEXT/UTF8
  82. Codec ID/Info : UTF-8 Plain Text
  83. Duration : 2 h 12 min
  84. Bit rate : 35 b/s
  85. Count of elements : 1204
  86. Stream size : 34.8 KiB (0%)
  87. Title : German
  88. Language : German
  89. Default : No
  90. Forced : No

  91. Text #4
  92. ID : 6
  93. Format : UTF-8
  94. Codec ID : S_TEXT/UTF8
  95. Codec ID/Info : UTF-8 Plain Text
  96. Duration : 2 h 12 min
  97. Bit rate : 34 b/s
  98. Count of elements : 1299
  99. Stream size : 33.8 KiB (0%)
  100. Title : Norwegian
  101. Language : Norwegian
  102. Default : No
  103. Forced : No

  104. Text #5
  105. ID : 7
  106. Format : UTF-8
  107. Codec ID : S_TEXT/UTF8
  108. Codec ID/Info : UTF-8 Plain Text
  109. Duration : 2 h 12 min
  110. Bit rate : 35 b/s
  111. Count of elements : 1114
  112. Stream size : 34.9 KiB (0%)
  113. Title : Dutch
  114. Language : Dutch
  115. Default : No
  116. Forced : No

  117. Text #6
  118. ID : 8
  119. Format : UTF-8
  120. Codec ID : S_TEXT/UTF8
  121. Codec ID/Info : UTF-8 Plain Text
  122. Duration : 2 h 12 min
  123. Bit rate : 39 b/s
  124. Count of elements : 1297
  125. Stream size : 38.5 KiB (0%)
  126. Title : Brazilian Portuguese
  127. Language : Portuguese
  128. Default : No
  129. Forced : No

  130. Text #7
  131. ID : 9
  132. Format : UTF-8
  133. Codec ID : S_TEXT/UTF8
  134. Codec ID/Info : UTF-8 Plain Text
  135. Duration : 2 h 12 min
  136. Bit rate : 33 b/s
  137. Count of elements : 1256
  138. Stream size : 32.4 KiB (0%)
  139. Title : French
  140. Language : French
  141. Default : No
  142. Forced : No

  143. Text #8
  144. ID : 10
  145. Format : UTF-8
  146. Codec ID : S_TEXT/UTF8
  147. Codec ID/Info : UTF-8 Plain Text
  148. Duration : 2 h 12 min
  149. Bit rate : 36 b/s
  150. Count of elements : 1277
  151. Stream size : 35.0 KiB (0%)
  152. Title : European Spanish
  153. Language : Spanish
  154. Default : No
  155. Forced : No

  156. Text #9
  157. ID : 11
  158. Format : UTF-8
  159. Codec ID : S_TEXT/UTF8
  160. Codec ID/Info : UTF-8 Plain Text
  161. Duration : 2 h 12 min
  162. Bit rate : 32 b/s
  163. Count of elements : 1257
  164. Stream size : 31.6 KiB (0%)
  165. Title : Japanese
  166. Language : Japanese
  167. Default : No
  168. Forced : No

  169. Text #10
  170. ID : 12
  171. Format : UTF-8
  172. Codec ID : S_TEXT/UTF8
  173. Codec ID/Info : UTF-8 Plain Text
  174. Duration : 2 h 12 min
  175. Bit rate : 35 b/s
  176. Count of elements : 1080
  177. Stream size : 34.8 KiB (0%)
  178. Title : Swedish
  179. Language : Swedish
  180. Default : No
  181. Forced : No

  182. Text #11
  183. ID : 13
  184. Format : UTF-8
  185. Codec ID : S_TEXT/UTF8
  186. Codec ID/Info : UTF-8 Plain Text
  187. Duration : 2 h 12 min
  188. Bit rate : 33 b/s
  189. Count of elements : 923
  190. Stream size : 32.4 KiB (0%)
  191. Title : Danish
  192. Language : Danish
  193. Default : No
  194. Forced : No

  195. Text #12
  196. ID : 14
  197. Format : UTF-8
  198. Codec ID : S_TEXT/UTF8
  199. Codec ID/Info : UTF-8 Plain Text
  200. Duration : 2 h 12 min
  201. Bit rate : 38 b/s
  202. Count of elements : 1273
  203. Stream size : 37.6 KiB (0%)
  204. Title : Portuguese
  205. Language : Portuguese
  206. Default : No
  207. Forced : No

  208. Text #13
  209. ID : 15
  210. Format : UTF-8
  211. Codec ID : S_TEXT/UTF8
  212. Codec ID/Info : UTF-8 Plain Text
  213. Duration : 2 h 12 min
  214. Bit rate : 40 b/s
  215. Count of elements : 1278
  216. Stream size : 39.1 KiB (0%)
  217. Title : Italian
  218. Language : Italian
  219. Default : No
  220. Forced : No

  221. Text #14
  222. ID : 16
  223. Format : UTF-8
  224. Codec ID : S_TEXT/UTF8
  225. Codec ID/Info : UTF-8 Plain Text
  226. Duration : 2 h 12 min
  227. Bit rate : 39 b/s
  228. Count of elements : 1300
  229. Stream size : 38.3 KiB (0%)
  230. Title : Finnish
  231. Language : Finnish
  232. Default : No
  233. Forced : No

  234. Text #15
  235. ID : 17
  236. Format : UTF-8
  237. Codec ID : S_TEXT/UTF8
  238. Codec ID/Info : UTF-8 Plain Text
  239. Duration : 2 h 12 min
  240. Bit rate : 39 b/s
  241. Count of elements : 1306
  242. Stream size : 38.8 KiB (0%)
  243. Title : English
  244. Language : English
  245. Default : No
  246. Forced : No

  247. Text #16
  248. ID : 18
  249. Format : UTF-8
  250. Codec ID : S_TEXT/UTF8
  251. Codec ID/Info : UTF-8 Plain Text
  252. Duration : 2 h 13 min
  253. Bit rate : 46 b/s
  254. Count of elements : 1630
  255. Stream size : 45.7 KiB (0%)
  256. Title : English [SDH]
  257. Language : English
  258. Default : No
  259. Forced : No
复制代码

黑寡妇4K.Black.Widow.2021.2160p.DSNP.WEB-DL.x265.10bit.HDR.DDP5.1.Atmos-4k电影下载

此资源不要迅雷下载,此资源迅雷下载会提示敏感资源没有版权,请更换其他下载软件下载;推荐使用(115网盘)或UT下载

黑寡妇4K.Black.Widow.2021.2160p.DSNP.WEB-DL.x265.10bit.HDR.DDP5.1.Atmos【4K 16.01 GB】
[Hao4K]黑寡妇4K.Black.Widow.2021.2160p.DSNP.WEB-DL.x265.10bit.HDR.DDP5.1.Atmos-CM.torrent (20.66 KB, 售价: 3 个K币)
回复

使用道具 举报

   发表回复

您需要登录后才可以回帖 登录 | 立即注册

返回列表 本版积分规则

  • 在线客服

  • 返回顶部