微博 微信

Hao4K影音

电影频道
电影封面:
片  名: 火药奶昔4k
电影分类: 动作 冒险 惊悚 
国  家: 美国 法国 德国 
年  代: 2021年
分 辨 率: 4K(3840x2160)
电影格式: MKV|REMUX 
画质标准: 其他 
音质编码: Dolby Digital Plus Audio 
电影声道: 5.1声道 
帧数/FPS: 24.000 帧
电影语言: 英文原版 
资源大小: 20.41 GB
导  演: 纳沃特·帕普莎多
豆瓣评分: 5.8 分
中文字幕: /thread-59567-1-1.html
剧情简介: 凯伦·吉兰(《复仇者联盟4》)、杨紫琼、琳娜·海蒂(《权力的游戏》)、安吉拉·贝塞特(《黑豹》)将联袂出演全女性卡司动作惊悚片《火药奶昔》,亚伦·凯莎莱斯和纳沃特·帕普莎多(《大坏狼》)执导,两人同Ehud Lavski编写剧本,金牌动作片制作人Andrew Rona和Alex Heineman(《空中营救》《通勤营救》)担任制片。
  影片讲述了跨越三代人的女性杀手故事。斯嘉丽(海蒂 饰)是一名专业杀手,为了保护幼女伊娃(吉兰 饰)的安全,她将女儿托付给老友,隐姓埋名。多年后,伊娃走上了母亲的老路,成为冷血无情的刺客。在一次行动中,伊娃不慎让事态失控,令无辜的八岁小女孩陷入险境。伊娃于心不忍,为了救人,只能背叛组织。命运最终让母女重逢,她们联合其他退休的女杀手,一起向夺走了她们一切的杀手组织发起复仇。
Bloody Milkshake/火药奶昔4k Gunpowder.Milkshake.2021.2160p.NF.WEBRip.DDP5.1.Atmos.x265-4k电影信息
  1. Video
  2. ID : 1
  3. Format : HEVC
  4. Format/Info : High Efficiency Video Coding
  5. Format profile : Main@L5.1@High
  6. Codec ID : V_MPEGH/ISO/HEVC
  7. Duration : 1 h 54 min
  8. Bit rate : 24.7 Mb/s
  9. Width : 3 840 pixels
  10. Height : 1 610 pixels
  11. Display aspect ratio : 2.40:1
  12. Frame rate mode : Constant
  13. Frame rate : 24.000 FPS
  14. Color space : YUV
  15. Chroma subsampling : 4:2:0 (Type 2)
  16. Bit depth : 8 bits
  17. Bits/(Pixel*Frame) : 0.166
  18. Stream size : 19.8 GiB (97%)
  19. Writing library : x265 3.5+10-82786fccc:[Windows][GCC 11.1.0][64 bit] 8bit+10bit+12bit
  20. Encoding settings : cpuid=1111039 / frame-threads=4 / numa-pools=24 / wpp / no-pmode / no-pme / no-psnr / ssim / log-level=2 / input-csp=1 / input-res=3840x1610 / interlace=0 / total-frames=165316 / level-idc=51 / high-tier=1 / uhd-bd=0 / ref=4 / no-allow-non-conformance / repeat-headers / annexb / no-aud / no-eob / no-eos / hrd / info / hash=0 / no-temporal-layers / no-open-gop / min-keyint=5 / keyint=240 / gop-lookahead=0 / bframes=8 / b-adapt=2 / b-pyramid / bframe-bias=0 / rc-lookahead=72 / lookahead-slices=0 / scenecut=40 / hist-scenecut=0 / radl=0 / no-splice / no-intra-refresh / ctu=64 / min-cu-size=8 / no-rect / no-amp / max-tu-size=32 / tu-inter-depth=1 / tu-intra-depth=1 / limit-tu=0 / rdoq-level=2 / dynamic-rd=0.00 / no-ssim-rd / signhide / no-tskip / nr-intra=0 / nr-inter=0 / no-constrained-intra / no-strong-intra-smoothing / max-merge=4 / limit-refs=3 / no-limit-modes / me=3 / subme=5 / merange=48 / temporal-mvp / no-frame-dup / hme / Level / merange / L0,L1,L2=16,32,48 / weightp / weightb / no-analyze-src-pics / deblock=-3:-3 / no-sao / no-sao-non-deblock / rd=4 / selective-sao=0 / no-early-skip / rskip / no-fast-intra / no-tskip-fast / no-cu-lossless / b-intra / no-splitrd-skip / rdpenalty=0 / psy-rd=2.00 / psy-rdoq=1.00 / no-rd-refine / no-lossless / cbqpoffs=0 / crqpoffs=0 / rc=crf / crf=20.0 / qcomp=0.65 / qpstep=4 / stats-write=0 / stats-read=0 / vbv-maxrate=160000 / vbv-bufsize=160000 / vbv-init=0.9 / min-vbv-fullness=50.0 / max-vbv-fullness=80.0 / crf-max=0.0 / crf-min=0.0 / ipratio=1.35 / pbratio=1.25 / aq-mode=2 / aq-strength=0.80 / no-cutree / zone-count=1 / zones: / start-frame=157847 / end-frame=165315 / qp=40 / no-strict-cbr / qg-size=32 / no-rc-grain / qpmax=69 / qpmin=0 / no-const-vbv / sar=1 / overscan=0 / videoformat=5 / range=0 / colorprim=1 / transfer=1 / colormatrix=1 / chromaloc=1 / chromaloc-top=2 / chromaloc-bottom=2 / display-window=0 / cll=0,0 / min-luma=0 / max-luma=1023 / log2-max-poc-lsb=8 / vui-timing-info / vui-hrd-info / slices=1 / no-opt-qp-pps / no-opt-ref-list-length-pps / no-multi-pass-opt-rps / scenecut-bias=0.05 / hist-threshold=0.03 / no-opt-cu-delta-qp / no-aq-motion / no-hdr10 / no-hdr10-opt / no-dhdr10-opt / no-idr-recovery-sei / analysis-reuse-level=0 / analysis-save-reuse-level=0 / analysis-load-reuse-level=0 / scale-factor=0 / refine-intra=0 / refine-inter=0 / refine-mv=1 / refine-ctu-distortion=0 / no-limit-sao / ctu-info=0 / no-lowpass-dct / refine-analysis-type=0 / copy-pic=1 / max-ausize-factor=1.0 / no-dynamic-refine / no-single-sei / no-hevc-aq / no-svt / no-field / qp-adaptation-range=1.00 / scenecut-aware-qp=0conformance-window-offsets / right=0 / bottom=0 / decoder-max-rate=0 / no-vbv-live-multi-pass
  21. Default : Yes
  22. Forced : No
  23. Color range : Limited
  24. Color primaries : BT.709
  25. Transfer characteristics : BT.709
  26. Matrix coefficients : BT.709

  27. Audio
  28. ID : 2
  29. Format : E-AC-3 JOC
  30. Format/Info : Enhanced AC-3 with Joint Object Coding
  31. Commercial name : Dolby Digital Plus with Dolby Atmos
  32. Codec ID : A_EAC3
  33. Duration : 1 h 54 min
  34. Bit rate mode : Constant
  35. Bit rate : 768 kb/s
  36. Channel(s) : 6 channels
  37. Channel layout : L R C LFE Ls Rs
  38. Sampling rate : 48.0 kHz
  39. Frame rate : 31.250 FPS (1536 SPF)
  40. Compression mode : Lossy
  41. Delay relative to video : 13 ms
  42. Stream size : 631 MiB (3%)
  43. Language : English
  44. Service kind : Complete Main
  45. Default : Yes
  46. Forced : No
  47. Complexity index : 16
  48. Number of dynamic objects : 15
  49. Bed channel count : 1 channel
  50. Bed channel configuration : LFE

  51. Text #1
  52. ID : 3
  53. Format : UTF-8
  54. Codec ID : S_TEXT/UTF8
  55. Codec ID/Info : UTF-8 Plain Text
  56. Duration : 1 s 875 ms
  57. Bit rate : 59 b/s
  58. Count of elements : 1
  59. Stream size : 14.0 Bytes (0%)
  60. Title : Forced
  61. Language : English
  62. Default : Yes
  63. Forced : Yes

  64. Text #2
  65. ID : 4
  66. Format : UTF-8
  67. Codec ID : S_TEXT/UTF8
  68. Codec ID/Info : UTF-8 Plain Text
  69. Duration : 1 h 49 min
  70. Bit rate : 38 b/s
  71. Count of elements : 1091
  72. Stream size : 31.2 KiB (0%)
  73. Language : English
  74. Default : No
  75. Forced : No

  76. Text #3
  77. ID : 5
  78. Format : UTF-8
  79. Codec ID : S_TEXT/UTF8
  80. Codec ID/Info : UTF-8 Plain Text
  81. Duration : 1 h 54 min
  82. Bit rate : 50 b/s
  83. Count of elements : 1559
  84. Stream size : 42.5 KiB (0%)
  85. Title : SDH
  86. Language : English
  87. Default : No
  88. Forced : No

  89. Text #4
  90. ID : 6
  91. Format : UTF-8
  92. Codec ID : S_TEXT/UTF8
  93. Codec ID/Info : UTF-8 Plain Text
  94. Duration : 1 h 48 min
  95. Bit rate : 32 b/s
  96. Count of elements : 701
  97. Stream size : 25.5 KiB (0%)
  98. Language : Danish
  99. Default : No
  100. Forced : No

  101. Text #5
  102. ID : 7
  103. Format : UTF-8
  104. Codec ID : S_TEXT/UTF8
  105. Codec ID/Info : UTF-8 Plain Text
  106. Duration : 1 h 48 min
  107. Bit rate : 32 b/s
  108. Count of elements : 756
  109. Stream size : 25.6 KiB (0%)
  110. Language : Finnish
  111. Default : No
  112. Forced : No

  113. Text #6
  114. ID : 8
  115. Format : UTF-8
  116. Codec ID : S_TEXT/UTF8
  117. Codec ID/Info : UTF-8 Plain Text
  118. Duration : 1 h 53 min
  119. Bit rate : 32 b/s
  120. Count of elements : 988
  121. Stream size : 27.0 KiB (0%)
  122. Language : French
  123. Default : No
  124. Forced : No

  125. Text #7
  126. ID : 9
  127. Format : UTF-8
  128. Codec ID : S_TEXT/UTF8
  129. Codec ID/Info : UTF-8 Plain Text
  130. Duration : 1 h 49 min
  131. Bit rate : 30 b/s
  132. Count of elements : 750
  133. Stream size : 24.7 KiB (0%)
  134. Language : Norwegian Bokmal
  135. Default : No
  136. Forced : No

  137. Text #8
  138. ID : 10
  139. Format : UTF-8
  140. Codec ID : S_TEXT/UTF8
  141. Codec ID/Info : UTF-8 Plain Text
  142. Duration : 1 h 48 min
  143. Bit rate : 34 b/s
  144. Count of elements : 760
  145. Stream size : 27.4 KiB (0%)
  146. Language : Swedish
  147. Default : No
  148. Forced : No
复制代码


Bloody Milkshake/火药奶昔4k Gunpowder.Milkshake.2021.2160p.NF.WEBRip.DDP5.1.Atmos.x265-4k电影下载

火药奶昔4k Gunpowder.Milkshake.2021.2160p.NF.WEBRip.DDP5.1.Atmos.x265【20.41GB】
[Hao4k]火药奶昔4k Gunpowder.Milkshake.2021.2160p.NF.WEBRip.DDP5.1.Atmos.x265-KiNGS.torrent (26.17 KB, 售价: 2 个K币)
回复

使用道具 举报

全部回复73

ywf6168 发表于 2021-7-17 19:23:46 Hao4K手机版

ywf6168 来自 2楼

2021-7-17 19:23:46

感谢分享

免费评分

参与人数 1K币 -100 违规 +1 收起 理由
花落无声 -100 + 1 违反论坛规则:多个主题回复相同内容(第五章第1条)

查看全部评分

回复 支持 反对

使用道具 举报

jonva 发表于 2021-7-17 18:40:30

jonva 3

2021-7-17 18:40:30

谢谢分享,,,,,

免费评分

参与人数 1违规 +1 收起 理由
花落无声 + 1 违反论坛规则:多个主题回复相同内容(第五章第1条)

查看全部评分

回复 支持 反对

使用道具 举报

86273812 发表于 2021-7-17 18:41:39

86273812 4

2021-7-17 18:41:39

感谢分享,4k出片速度很快啊,
回复 支持 反对

使用道具 举报

121376484 发表于 2021-7-17 18:59:57

121376484 5

2021-7-17 18:59:57


谢谢楼主分享!

免费评分

参与人数 1违规 +1 收起 理由
花落无声 + 1 违反论坛规则:多个主题回复相同内容(第五章第1条)

查看全部评分

回复 支持 反对

使用道具 举报

panjielin556 发表于 2021-7-17 20:01:19

panjielin556 6

2021-7-17 20:01:19

谢谢分享

免费评分

参与人数 1K币 -10 违规 +1 收起 理由
花落无声 -10 + 1 违反论坛规则:多个主题回复相同内容(第五章第1条)

查看全部评分

回复 支持 反对

使用道具 举报

qingyangm33 发表于 2021-7-17 20:34:22

qingyangm33 7

2021-7-17 20:34:22


谢谢分享

免费评分

参与人数 1K币 -10 违规 +1 收起 理由
花落无声 -10 + 1 违反论坛规则:多个主题回复相同内容(第五章第1条)

查看全部评分

回复 支持 反对

使用道具 举报

qhdheb 发表于 2021-7-17 21:16:04

qhdheb 8

2021-7-17 21:16:04

感谢分享

免费评分

参与人数 1违规 +1 收起 理由
花落无声 + 1 违反论坛规则:多个主题回复相同内容(第五章第1条)

查看全部评分

回复 支持 反对

使用道具 举报

18520199909 发表于 2021-7-17 21:18:37 Hao4K手机版

18520199909 9

2021-7-17 21:18:37

演员阵容强大,评分还可以,下载支持!
回复 支持 反对

使用道具 举报

mengweiran 发表于 2021-7-17 23:02:03

mengweiran 10

2021-7-17 23:02:03

谢谢分享
回复 支持 反对

使用道具 举报

sammovies 发表于 2021-7-17 23:28:05

sammovies 11

2021-7-17 23:28:05

thanks for sharing!
回复 支持 反对

使用道具 举报

zhp961031 发表于 2021-7-17 23:31:43

zhp961031 12

2021-7-17 23:31:43


感谢分享!!!!!速度确实很快
回复 支持 反对

使用道具 举报

在吗看看p 发表于 2021-7-18 00:14:07

在吗看看p 13

2021-7-18 00:14:07

感谢分享

免费评分

参与人数 1K币 -10 违规 +1 收起 理由
花落无声 -10 + 1 违反论坛规则:多个主题回复相同内容(第五章第1条)

查看全部评分

回复 支持 反对

使用道具 举报

jgxing 发表于 2021-7-18 07:44:25 Hao4K手机版

jgxing 14

2021-7-18 07:44:25

求助字幕文件
回复 支持 反对

使用道具 举报

watson_520 发表于 2021-7-18 07:57:19

watson_520 15

2021-7-18 07:57:19

有杨紫琼的电影一般都不会太差
回复 支持 反对

使用道具 举报

cn8355 发表于 2021-7-18 08:06:37

cn8355 16

2021-7-18 08:06:37



谢谢分享

免费评分

参与人数 1K币 -10 违规 +1 收起 理由
花落无声 -10 + 1 违反论坛规则:多个主题回复相同内容(第五章第1条)

查看全部评分

回复 支持 反对

使用道具 举报

dqxa 发表于 2021-7-18 08:07:37

dqxa 17

2021-7-18 08:07:37

谢谢楼主,先下载,等有字幕了再看。
回复 支持 反对

使用道具 举报

dyczw 发表于 2021-7-18 08:17:33

dyczw 18

2021-7-18 08:17:33

期待蓝光版本的。纯支持一下!
回复 支持 反对

使用道具 举报

   发表回复

您需要登录后才可以回帖 登录 | 立即注册

返回列表 本版积分规则

  • 在线客服

  • 返回顶部