微博 微信

Hao4K影音

电影频道
电影封面:
片  名: 未怀孕4k
电影分类: 剧情 喜剧 
国  家: 美国 
年  代: 2020年
分 辨 率: 4K(3840x2160)
电影格式: MKV|REMUX 
画质标准: HDR 
音质编码: Dolby Digital Audio 
电影声道: 5.1声道 
帧数/FPS: 23.976 帧
电影语言: 英文原版 
资源大小: 10.54 GB
导  演: 蕾琪儿·戈登堡
豆瓣评分: 6.8 分
中文字幕: -
剧情简介: 女孩Veronica(理查森)发现自己怀孕了,她只能和有车的“前”好友Bailey(Ferreira)一起上路,寻求合法堕胎:Veronica的男友很窝囊,她自己也不想这么年轻就当妈妈,不然会影响她的常春藤大学梦。而她所在的美国密苏里州规定未成年人必须有父母同意才能堕胎,她的父母并不同意。Veronica决定旅行900英里,去新墨西哥州堕胎后回家。
  Veronica是个沉迷于ins、成绩优秀、雄心勃勃的好学生,而Bailey是个孤独、毒舌的酷儿,对Veronica的新朋友们忍耐度为零。这样两个人怀着这样的目标一起上路,途中行差踏错,既有动情之处,又有幽默。
堕胎/未怀孕4k Unpregnant.2020.2160p.WEB-DL.x265.10bit.HDR.DD5.1-4k电影信息
  1. Video
  2. ID : 1
  3. Format : HEVC
  4. Format/Info : High Efficiency Video Coding
  5. Format profile : Main 10@L5@High
  6. HDR format : SMPTE ST 2086, HDR10 compatible
  7. Codec ID : V_MPEGH/ISO/HEVC
  8. Duration : 1 h 43 min
  9. Bit rate : 14.2 Mb/s
  10. Width : 3 840 pixels
  11. Height : 1 608 pixels
  12. Display aspect ratio : 2.40:1
  13. Frame rate mode : Constant
  14. Frame rate : 23.976 (24000/1001) FPS
  15. Color space : YUV
  16. Chroma subsampling : 4:2:0 (Type 2)
  17. Bit depth : 10 bits
  18. Bits/(Pixel*Frame) : 0.096
  19. Stream size : 10.3 GiB (97%)
  20. Language : English
  21. Default : Yes
  22. Forced : No
  23. Color range : Limited
  24. Color primaries : BT.2020
  25. Transfer characteristics : PQ
  26. Matrix coefficients : BT.2020 non-constant
  27. Mastering display color primaries : BT.2020
  28. Mastering display luminance : min: 0.0050 cd/m2, max: 1000 cd/m2
  29. Maximum Content Light Level : 978 cd/m2
  30. Maximum Frame-Average Light Level : 155 cd/m2

  31. Audio
  32. ID : 2
  33. Format : AC-3
  34. Format/Info : Audio Coding 3
  35. Commercial name : Dolby Digital
  36. Codec ID : A_AC3
  37. Duration : 1 h 43 min
  38. Bit rate mode : Constant
  39. Bit rate : 384 kb/s
  40. Channel(s) : 6 channels
  41. Channel layout : L R C LFE Ls Rs
  42. Sampling rate : 48.0 kHz
  43. Frame rate : 31.250 FPS (1536 SPF)
  44. Compression mode : Lossy
  45. Stream size : 285 MiB (3%)
  46. Language : English
  47. Service kind : Complete Main
  48. Default : Yes
  49. Forced : No

  50. Text
  51. ID : 3
  52. Format : UTF-8
  53. Codec ID : S_TEXT/UTF8
  54. Codec ID/Info : UTF-8 Plain Text
  55. Duration : 1 h 39 min
  56. Bit rate : 78 b/s
  57. Count of elements : 1677
  58. Stream size : 56.7 KiB (0%)
  59. Title : (SDH)
  60. Language : English
  61. Default : No
  62. Forced : No
复制代码

堕胎/未怀孕4k Unpregnant.2020.2160p.WEB-DL.x265.10bit.HDR.DD5.1-4k电影下载
未怀孕4k Unpregnant.2020.2160p.WEB-DL.x265.10bit.HDR.DD5.1【10.54 GB】
[Hao4k]未怀孕4k Unpregnant.2020.2160p.WEB-DL.x265.10bit.HDR.DD5.1-ROCCaT.torrent (13.81 KB)
回复

使用道具 举报

全部回复4

kakalala 发表于 5 天前

kakalala 2

5 天前

这片子 蛮好看的顶
回复 支持 反对

使用道具 举报

dvd752 发表于 5 天前

dvd752 3

5 天前

公路片吗,最喜欢这类型的
回复 支持 反对

使用道具 举报

Marcoo 发表于 3 天前

Marcoo 4

3 天前

看简介有点意思. 下下来看看..感谢lz..
回复 支持 反对

使用道具 举报

dvd752 发表于 前天 13:01

dvd752 5

前天 13:01

这片子OPPO203机子播放有音频没图像,黑幕,是屏蔽信号了还是咋的。转码格式也失败不允许。
回复 支持 反对

使用道具 举报

   发表回复

您需要登录后才可以回帖 登录 | 立即注册

返回列表 本版积分规则

  • 在线客服

  • 返回顶部