微博 微信

Hao4K影音

电视剧频道
电视剧封面:
电视剧名: 德黑兰 第一季4K
年  代: 2020  
国  家: 美国
类  别: 惊悚 剧情 
语  言: 英语
字  幕: 英文原版
上映日期: 2020-09-25
文件格式: mkv    
视频效果: 4K(3840x2160)    
资源大小: 69.79 GB
片  长: 45 分钟
导  演: Daniel Syrkin
剧情简介: 故事讲述以色列情报及特殊使命局(Mossad)一名女特务,乔装潜入伊朗首都德黑兰(Tehran)为进行一项危险任务的惊险过程。
德黑兰行动/德黑兰 第一季4K Tehran.S01.HEBREW.2160p.ATVP.WEB-DL.DDP5.1.Atmos.DV.MP4.x265-4k杜比视界版本美剧信息
  1. Video
  2. ID : 1
  3. Format : HEVC
  4. Format/Info : High Efficiency Video Coding
  5. Format profile : Main 10@L5@High
  6. HDR format : Dolby Vision, Version 1.0, dvhe.05.06, BL+RPU
  7. Codec ID : dvhe
  8. Codec ID/Info : High Efficiency Video Coding with Dolby Vision
  9. Duration : 50 min 14 s
  10. Bit rate : 24.5 Mb/s
  11. Width : 3 840 pixels
  12. Original width : 3 838 pixels
  13. Height : 1 608 pixels
  14. Original height : 1 606 pixels
  15. Display aspect ratio : 2.40:1
  16. Original display aspect ratio : 2.40:1
  17. Frame rate mode : Constant
  18. Frame rate : 23.976 (24000/1001) FPS
  19. Color space : YUV
  20. Chroma subsampling : 4:2:0
  21. Bit depth : 10 bits
  22. Bits/(Pixel*Frame) : 0.165
  23. Stream size : 8.60 GiB (94%)
  24. Default : Yes
  25. Alternate group : 1
  26. Encoded date : UTC 2021-06-29 06:45:28
  27. Tagged date : UTC 2021-06-29 06:46:07
  28. Codec configuration box : hvcC+dvcC

  29. Audio #1
  30. ID : 2
  31. Format : E-AC-3 JOC
  32. Format/Info : Enhanced AC-3 with Joint Object Coding
  33. Commercial name : Dolby Digital Plus with Dolby Atmos
  34. Codec ID : ec-3
  35. Duration : 50 min 14 s
  36. Bit rate mode : Constant
  37. Bit rate : 768 kb/s
  38. Maximum bit rate : 811 kb/s
  39. Channel(s) : 6 channels
  40. Channel layout : L R C LFE Ls Rs
  41. Sampling rate : 48.0 kHz
  42. Frame rate : 31.250 FPS (1536 SPF)
  43. Compression mode : Lossy
  44. Stream size : 276 MiB (3%)
  45. Title : ×¢×�ר×�×a
  46. Language : Hebrew
  47. Service kind : Complete Main
  48. Encoded date : UTC 2021-06-29 06:45:01
  49. Tagged date : UTC 2021-06-29 06:46:07
  50. Complexity index : Not present / 16
  51. Number of dynamic objects : 15
  52. Bed channel count : 1 channel
  53. Bed channel configuration : LFE

  54. Audio #2
  55. ID : 3
  56. Format : E-AC-3 JOC
  57. Format/Info : Enhanced AC-3 with Joint Object Coding
  58. Commercial name : Dolby Digital Plus with Dolby Atmos
  59. Codec ID : ec-3
  60. Duration : 50 min 14 s
  61. Bit rate mode : Constant
  62. Bit rate : 768 kb/s
  63. Maximum bit rate : 811 kb/s
  64. Channel(s) : 6 channels
  65. Channel layout : L R C LFE Ls Rs
  66. Sampling rate : 48.0 kHz
  67. Frame rate : 31.250 FPS (1536 SPF)
  68. Compression mode : Lossy
  69. Stream size : 276 MiB (3%)
  70. Title : English
  71. Language : English
  72. Service kind : Complete Main
  73. Encoded date : UTC 2021-06-29 06:45:06
  74. Tagged date : UTC 2021-06-29 06:46:07
  75. Complexity index : Not present / 16
  76. Number of dynamic objects : 15
  77. Bed channel count : 1 channel
  78. Bed channel configuration : LFE

  79. Text #1
  80. ID : 4
  81. Format : Timed Text
  82. Codec ID : tx3g
  83. Duration : 48 min 48 s
  84. Bit rate mode : Variable
  85. Bit rate : 54 b/s
  86. Stream size : 19.4 KiB (0%)
  87. Title : English
  88. Language : English
  89. Forced : No
  90. Encoded date : UTC 2021-06-29 06:46:04
  91. Tagged date : UTC 2021-06-29 06:46:07

  92. Text #2
  93. ID : 5
  94. Format : Timed Text
  95. Codec ID : tx3g
  96. Duration : 49 min 43 s
  97. Bit rate mode : Variable
  98. Bit rate : 79 b/s
  99. Stream size : 28.9 KiB (0%)
  100. Language : Arabic
  101. Forced : No
  102. Encoded date : UTC 2021-06-29 06:46:04
  103. Tagged date : UTC 2021-06-29 06:46:07

  104. Text #3
  105. ID : 6
  106. Format : Timed Text
  107. Codec ID : tx3g
  108. Duration : 49 min 43 s
  109. Bit rate mode : Variable
  110. Bit rate : 79 b/s
  111. Stream size : 28.6 KiB (0%)
  112. Language : Bulgarian
  113. Forced : No
  114. Encoded date : UTC 2021-06-29 06:46:04
  115. Tagged date : UTC 2021-06-29 06:46:07

  116. Text #4
  117. ID : 7
  118. Format : Timed Text
  119. Codec ID : tx3g
  120. Duration : 49 min 43 s
  121. Bit rate mode : Variable
  122. Bit rate : 51 b/s
  123. Stream size : 18.6 KiB (0%)
  124. Language : cmn
  125. Forced : No
  126. Encoded date : UTC 2021-06-29 06:46:04
  127. Tagged date : UTC 2021-06-29 06:46:07

  128. Text #5
  129. ID : 8
  130. Format : Timed Text
  131. Codec ID : tx3g
  132. Duration : 49 min 43 s
  133. Bit rate mode : Variable
  134. Bit rate : 51 b/s
  135. Stream size : 18.6 KiB (0%)
  136. Language : cmn
  137. Forced : No
  138. Encoded date : UTC 2021-06-29 06:46:04
  139. Tagged date : UTC 2021-06-29 06:46:07

  140. Text #6
  141. ID : 9
  142. Format : Timed Text
  143. Codec ID : tx3g
  144. Duration : 49 min 43 s
  145. Bit rate mode : Variable
  146. Bit rate : 51 b/s
  147. Stream size : 18.5 KiB (0%)
  148. Language : Czech
  149. Forced : No
  150. Encoded date : UTC 2021-06-29 06:46:04
  151. Tagged date : UTC 2021-06-29 06:46:07
复制代码

德黑兰行动/德黑兰 第一季4K Tehran.S01.HEBREW.2160p.ATVP.WEB-DL.DDP5.1.Atmos.DV.MP4.x265-4k杜比视界版本美剧下载

德黑兰 第一季4K Tehran.S01.HEBREW.2160p.ATVP.WEB-DL.DDP5.1.Atmos.DV.MP4.x265杜比视界版本【69.79GB】
[Hao4k]德黑兰 第一季4k Tehran.S01.HEBREW.2160p.ATVP.WEB-DL.DDP5.1.Atmos.DV.MP4.x.torrent (88.59 KB)
回复

使用道具 举报

全部回复2

上游68 发表于 2021-7-21 10:58:20

上游68 2

2021-7-21 10:58:20

没有字幕啊?
回复 支持 反对

使用道具 举报

cherokee 发表于 2021-7-22 23:35:31

cherokee 3

2021-7-22 23:35:31

没有字幕啊
回复 支持 反对

使用道具 举报

   发表回复

您需要登录后才可以回帖 登录 | 立即注册

返回列表 本版积分规则

  • 在线客服

  • 返回顶部