微博 微信

Hao4K影音

电视剧频道
电视剧封面:
电视剧名: 欢迎来到施米加多! 第一季4k
年  代: 2021  
国  家: 美国
类  别:  
语  言: 英语
字  幕: 中文简体
上映日期: 2021-07-16
文件格式: mkv    
视频效果: 4K(3840x2160)    
资源大小: 5.30 GB
片  长: -
导  演: 肯·道里欧 / 辛科·保罗
剧情简介: -
神奇小镇舒密加顿/欢迎来到施米加多! 第一季4k Schmigadoon.S01E02.Lovers.Spat.2160p.ATVP.WEB-DL.DDP5.1.Atmos.DV.MP4.x265-4k杜比视界美剧信息
  1. Video
  2. ID : 1
  3. Format : HEVC
  4. Format/Info : High Efficiency Video Coding
  5. Format profile : Main 10@L5@High
  6. HDR format : SMPTE ST 2086, HDR10 compatible
  7. Codec ID : V_MPEGH/ISO/HEVC
  8. Duration : 29 min 51 s
  9. Bit rate : 23.7 Mb/s
  10. Width : 3 840 pixels
  11. Height : 1 920 pixels
  12. Display aspect ratio : 2.000
  13. Frame rate mode : Constant
  14. Frame rate : 23.976 (24000/1001) FPS
  15. Color space : YUV
  16. Chroma subsampling : 4:2:0 (Type 2)
  17. Bit depth : 10 bits
  18. Bits/(Pixel*Frame) : 0.134
  19. Stream size : 4.94 GiB (95%)
  20. Language : English
  21. Default : Yes
  22. Forced : No
  23. Color range : Limited
  24. Color primaries : BT.2020
  25. Transfer characteristics : PQ
  26. Matrix coefficients : BT.2020 non-constant
  27. Mastering display color primaries : Display P3
  28. Mastering display luminance : min: 0.0001 cd/m2, max: 1000 cd/m2
  29. Maximum Content Light Level : 1078 cd/m2
  30. Maximum Frame-Average Light Level : 125 cd/m2

  31. Audio
  32. ID : 2
  33. Format : E-AC-3 JOC
  34. Format/Info : Enhanced AC-3 with Joint Object Coding
  35. Commercial name : Dolby Digital Plus with Dolby Atmos
  36. Codec ID : A_EAC3
  37. Duration : 29 min 51 s
  38. Bit rate mode : Constant
  39. Bit rate : 768 kb/s
  40. Channel(s) : 6 channels
  41. Channel layout : L R C LFE Ls Rs
  42. Sampling rate : 48.0 kHz
  43. Frame rate : 31.250 FPS (1536 SPF)
  44. Compression mode : Lossy
  45. Stream size : 164 MiB (3%)
  46. Language : English
  47. Service kind : Complete Main
  48. Default : Yes
  49. Forced : No
  50. Complexity index : 16
  51. Number of dynamic objects : 15
  52. Bed channel count : 1 channel
  53. Bed channel configuration : LFE

  54. Text #1
  55. ID : 3
  56. Format : UTF-8
  57. Codec ID : S_TEXT/UTF8
  58. Codec ID/Info : UTF-8 Plain Text
  59. Title : English
  60. Language : English
  61. Default : No
  62. Forced : No

  63. Text #2
  64. ID : 4
  65. Format : UTF-8
  66. Codec ID : S_TEXT/UTF8
  67. Codec ID/Info : UTF-8 Plain Text
  68. Title : Arabic
  69. Language : Arabic
  70. Default : No
  71. Forced : No

  72. Text #3
  73. ID : 5
  74. Format : UTF-8
  75. Codec ID : S_TEXT/UTF8
  76. Codec ID/Info : UTF-8 Plain Text
  77. Title : Bulgarian
  78. Language : Bulgarian
  79. Default : No
  80. Forced : No

  81. Text #4
  82. ID : 6
  83. Format : UTF-8
  84. Codec ID : S_TEXT/UTF8
  85. Codec ID/Info : UTF-8 Plain Text
  86. Title : Chinese Simplified
  87. Language : Chinese
  88. Default : No
  89. Forced : No

  90. Text #5
  91. ID : 7
  92. Format : UTF-8
  93. Codec ID : S_TEXT/UTF8
  94. Codec ID/Info : UTF-8 Plain Text
  95. Title : Chinese Traditional
  96. Language : Chinese
  97. Default : No
  98. Forced : No

  99. Text #6
  100. ID : 8
  101. Format : UTF-8
  102. Codec ID : S_TEXT/UTF8
  103. Codec ID/Info : UTF-8 Plain Text
  104. Title : Chinese Yue
  105. Language : Chinese
  106. Default : No
  107. Forced : No

  108. Text #7
  109. ID : 9
  110. Format : UTF-8
  111. Codec ID : S_TEXT/UTF8
  112. Codec ID/Info : UTF-8 Plain Text
  113. Title : Czech
  114. Language : Czech
  115. Default : No
  116. Forced : No

  117. Text #8
  118. ID : 10
  119. Format : UTF-8
  120. Codec ID : S_TEXT/UTF8
  121. Codec ID/Info : UTF-8 Plain Text
  122. Title : Danish
  123. Language : Danish
  124. Default : No
  125. Forced : No

  126. Text #9
  127. ID : 11
  128. Format : UTF-8
  129. Codec ID : S_TEXT/UTF8
  130. Codec ID/Info : UTF-8 Plain Text
  131. Title : Dutch
  132. Language : Dutch
  133. Default : No
  134. Forced : No
复制代码

神奇小镇舒密加顿/欢迎来到施米加多! 第一季4k Schmigadoon.S01E02.Lovers.Spat.2160p.ATVP.WEB-DL.DDP5.1.Atmos.DV.MP4.x265-4k杜比视界美剧下载

欢迎来到施米加多! 第一季4k Schmigadoon.S01E01.HDR.2160p.WEB.H265【5.21 GB】
[Hao4k]欢迎来到施米加多! 第一季4k Schmigadoon.S01E01.HDR.2160p.WEB.H265-GGEZ.torrent (13.64 KB)
回复

使用道具 举报

   发表回复

您需要登录后才可以回帖 登录 | 立即注册

返回列表 本版积分规则

  • 在线客服

  • 返回顶部