微博 微信

Hao4K影音

电视剧频道
电视剧封面:
电视剧名: 麦卡特尼回首4k
年  代: 2021  
国  家: 美国
类  别: 纪录片 
语  言: 英语
字  幕: 英文原版
上映日期: 2021-07-16
文件格式: mkv    
视频效果: 4K(3840x2160)    
资源大小: 18.36 GB
片  长: -
导  演: 扎克瑞·海因策林
剧情简介: 讲述保罗·麦卡特尼音乐生涯的6集纪录剧集《麦卡特尼回首》(McCartney 3,2,1,暂译)将于7月16日登陆Hulu!在该剧中,麦卡特尼与音乐制作人瑞克·鲁宾进行深度对话,麦卡特尼将回顾自己60多年音乐生涯的方方面面,从披斗士乐队与羽翼乐队到自己的独唱生涯。该剧由扎克瑞·海因策林([小可爱与拳击手])执导。
麦卡特尼321/麦卡特尼回首4k McCartney.3.2.1.S01.2160p.HULU.WEBRip.DDP5.1.x265-4k纪录片信息
  1. Video
  2. ID : 1
  3. Format : HEVC
  4. Format/Info : High Efficiency Video Coding
  5. Format profile : Main 10@L5.1@Main
  6. Codec ID : V_MPEGH/ISO/HEVC
  7. Duration : 30 min 33 s
  8. Bit rate : 14.5 Mb/s
  9. Width : 3 840 pixels
  10. Height : 2 160 pixels
  11. Display aspect ratio : 16:9
  12. Frame rate mode : Constant
  13. Frame rate : 23.976 (24000/1001) FPS
  14. Color space : YUV
  15. Chroma subsampling : 4:2:0
  16. Bit depth : 10 bits
  17. Bits/(Pixel*Frame) : 0.073
  18. Stream size : 3.10 GiB (96%)
  19. Default : Yes
  20. Forced : No

  21. Audio
  22. ID : 2
  23. Format : E-AC-3
  24. Format/Info : Enhanced AC-3
  25. Commercial name : Dolby Digital Plus
  26. Codec ID : A_EAC3
  27. Duration : 30 min 33 s
  28. Bit rate mode : Constant
  29. Bit rate : 256 kb/s
  30. Channel(s) : 6 channels
  31. Channel layout : L R C LFE Ls Rs
  32. Sampling rate : 48.0 kHz
  33. Frame rate : 31.250 FPS (1536 SPF)
  34. Compression mode : Lossy
  35. Stream size : 55.9 MiB (2%)
  36. Language : English
  37. Service kind : Complete Main
  38. Default : Yes
  39. Forced : No

  40. Text #1
  41. ID : 3
  42. Format : UTF-8
  43. Codec ID : S_TEXT/UTF8
  44. Codec ID/Info : UTF-8 Plain Text
  45. Title : English
  46. Language : English
  47. Default : No
  48. Forced : No

  49. Text #2
  50. ID : 4
  51. Format : UTF-8
  52. Codec ID : S_TEXT/UTF8
  53. Codec ID/Info : UTF-8 Plain Text
  54. Title : Español
  55. Language : Spanish
  56. Default : No
  57. Forced : No
复制代码


麦卡特尼321/麦卡特尼回首4k McCartney.3.2.1.S01.2160p.HULU.WEBRip.DDP5.1.x265-4k纪录片下载
麦卡特尼回首4k McCartney.3.2.1.S01.2160p.HULU.WEBRip.DDP5.1.x265【18.36 GB】
[Hao4k]麦卡特尼回首4k McCartney.3.2.1.S01.2160p.HULU.WEBRip.DDP5.1.x265-AGLET.torrent (24.25 KB)
回复

使用道具 举报

全部回复1

imagay 发表于 2021-7-20 07:40:04

imagay 2

2021-7-20 07:40:04

没听过这位的作品,支持一下
回复 支持 反对

使用道具 举报

   发表回复

您需要登录后才可以回帖 登录 | 立即注册

返回列表 本版积分规则

  • 在线客服

  • 返回顶部