微博 微信

Hao4K影音

电影频道
电影封面:
片  名: 失恋排行榜4k
电影分类: 剧情 喜剧 爱情片 其他 
国  家: 美国 英国 
年  代: 00年代
分 辨 率: 4K(3840x2160)
电影格式: MKV|REMUX 
画质标准: HDR 
音质编码: DTS-HD Master Audio 
电影声道: 5.1声道 
帧数/FPS: 23.976 帧
电影语言: 英文原版 
资源大小: 16.60 GB
导  演: 斯蒂芬·弗雷斯
豆瓣评分: 7.3 分
中文字幕: /thread-60194-1-1.html
剧情简介: 罗伯(约翰·库萨克 John Cusack 饰)是个音乐狂热爱好者,他经营着一家唱片店,店里的两名店员迪克和伯利都是音乐爱好者。一天,罗伯的女友罗拉(艾本·叶尤 Iben Hjejle 饰)跟他提出分手,他甚至搞不清楚原因。为此他做起自己的“失恋排行榜”,回顾一路以来失败的恋爱。他发现自己总是充当被甩的一方,于是他决定重新联系这些前女友,询问她们当初选择分手的原因。
  与此同时,罗拉因为要搬出罗伯的住处而与他一直保持着联系。一次,罗伯从罗拉的朋友口中得知,罗拉居然开始和住在自家楼上的伊安(蒂姆·罗宾斯 Tim Robbins 饰)约会。这让罗伯大受打击,他开始不停地打电话骚扰罗拉和伊安,在他们楼下徘徊。终于有一天,转机到了,罗拉告诉罗伯,她父亲去世了……
失恋排行榜4k High.Fidelity.2000.2160p.DSNP.WEB-DL.x265.10bit.HDR.DTS-HD.MA.5.1-4k电影信息
  1. Video
  2. ID : 1
  3. Format : HEVC
  4. Format/Info : High Efficiency Video Coding
  5. Format profile : Main 10@L5@High
  6. HDR format : SMPTE ST 2086, HDR10 compatible
  7. Codec ID : V_MPEGH/ISO/HEVC
  8. Duration : 1 h 53 min
  9. Bit rate : 16.5 Mb/s
  10. Width : 3 840 pixels
  11. Height : 2 160 pixels
  12. Display aspect ratio : 16:9
  13. Frame rate mode : Constant
  14. Frame rate : 23.976 (24000/1001) FPS
  15. Color space : YUV
  16. Chroma subsampling : 4:2:0
  17. Bit depth : 10 bits
  18. Bits/(Pixel*Frame) : 0.083
  19. Stream size : 13.1 GiB (79%)
  20. Default : Yes
  21. Forced : No
  22. Color range : Limited
  23. Color primaries : BT.2020
  24. Transfer characteristics : PQ
  25. Matrix coefficients : BT.2020 non-constant
  26. Mastering display color primaries : BT.2020
  27. Mastering display luminance : min: 0.0001 cd/m2, max: 1000 cd/m2

  28. Audio #1
  29. ID : 2
  30. Format : DTS XLL
  31. Format/Info : Digital Theater Systems
  32. Commercial name : DTS-HD Master Audio
  33. Codec ID : A_DTS
  34. Duration : 1 h 53 min
  35. Bit rate mode : Variable
  36. Bit rate : 4 170 kb/s
  37. Channel(s) : 6 channels
  38. Channel layout : C L R Ls Rs LFE
  39. Sampling rate : 48.0 kHz
  40. Frame rate : 93.750 FPS (512 SPF)
  41. Bit depth : 24 bits
  42. Compression mode : Lossless
  43. Delay relative to video : 3 ms
  44. Stream size : 3.31 GiB (20%)
  45. Title : DTS-HD MA 5.1
  46. Language : English
  47. Default : Yes
  48. Forced : No

  49. Audio #2
  50. ID : 3
  51. Format : E-AC-3
  52. Format/Info : Enhanced AC-3
  53. Commercial name : Dolby Digital Plus
  54. Codec ID : A_EAC3
  55. Duration : 1 h 53 min
  56. Bit rate mode : Constant
  57. Bit rate : 256 kb/s
  58. Channel(s) : 6 channels
  59. Channel layout : L R C LFE Ls Rs
  60. Sampling rate : 48.0 kHz
  61. Frame rate : 31.250 FPS (1536 SPF)
  62. Compression mode : Lossy
  63. Stream size : 208 MiB (1%)
  64. Title : DDP 5.1
  65. Language : English
  66. Service kind : Complete Main
  67. Default : No
  68. Forced : No

  69. Text #1
  70. ID : 4
  71. Format : UTF-8
  72. Codec ID : S_TEXT/UTF8
  73. Codec ID/Info : UTF-8 Plain Text
  74. Duration : 1 h 53 min
  75. Bit rate : 92 b/s
  76. Count of elements : 1789
  77. Stream size : 77.3 KiB (0%)
  78. Language : English
  79. Default : Yes
  80. Forced : No

  81. Text #2
  82. ID : 5
  83. Format : UTF-8
  84. Codec ID : S_TEXT/UTF8
  85. Codec ID/Info : UTF-8 Plain Text
  86. Duration : 1 h 53 min
  87. Bit rate : 92 b/s
  88. Count of elements : 1790
  89. Stream size : 77.0 KiB (0%)
  90. Title : SDH
  91. Language : English
  92. Default : No
  93. Forced : No

  94. Text #3
  95. ID : 6
  96. Format : UTF-8
  97. Codec ID : S_TEXT/UTF8
  98. Codec ID/Info : UTF-8 Plain Text
  99. Duration : 1 h 46 min
  100. Bit rate : 70 b/s
  101. Count of elements : 1541
  102. Stream size : 54.9 KiB (0%)
  103. Title : Brazilian
  104. Language : Portuguese
  105. Default : No
  106. Forced : No

  107. Text #4
  108. ID : 7
  109. Format : UTF-8
  110. Codec ID : S_TEXT/UTF8
  111. Codec ID/Info : UTF-8 Plain Text
  112. Duration : 1 h 48 min
  113. Bit rate : 62 b/s
  114. Count of elements : 1139
  115. Stream size : 49.3 KiB (0%)
  116. Language : Danish
  117. Default : No
  118. Forced : No

  119. Text #5
  120. ID : 8
  121. Format : UTF-8
  122. Codec ID : S_TEXT/UTF8
  123. Codec ID/Info : UTF-8 Plain Text
  124. Duration : 1 h 45 min
  125. Bit rate : 62 b/s
  126. Count of elements : 1114
  127. Stream size : 48.5 KiB (0%)
  128. Language : German
  129. Default : No
  130. Forced : No

  131. Text #6
  132. ID : 9
  133. Format : UTF-8
  134. Codec ID : S_TEXT/UTF8
  135. Codec ID/Info : UTF-8 Plain Text
  136. Duration : 1 h 48 min
  137. Bit rate : 61 b/s
  138. Count of elements : 1110
  139. Stream size : 49.0 KiB (0%)
  140. Title : European
  141. Language : Spanish
  142. Default : No
  143. Forced : No

  144. Text #7
  145. ID : 10
  146. Format : UTF-8
  147. Codec ID : S_TEXT/UTF8
  148. Codec ID/Info : UTF-8 Plain Text
  149. Duration : 1 h 46 min
  150. Bit rate : 81 b/s
  151. Count of elements : 1811
  152. Stream size : 63.6 KiB (0%)
  153. Title : SDH
  154. Language : Spanish
  155. Default : No
  156. Forced : No

  157. Text #8
  158. ID : 11
  159. Format : UTF-8
  160. Codec ID : S_TEXT/UTF8
  161. Codec ID/Info : UTF-8 Plain Text
  162. Duration : 1 h 46 min
  163. Bit rate : 102 b/s
  164. Count of elements : 1954
  165. Stream size : 80.1 KiB (0%)
  166. Title : SDH
  167. Language : French
  168. Default : No
  169. Forced : No
复制代码

失恋排行榜4k High.Fidelity.2000.2160p.DSNP.WEB-DL.x265.10bit.HDR.DTS-HD.MA.5.1-4k电影下载
[Hao4k]失恋排行榜4k High.Fidelity.2000.2160p.DSNP.WEB-DL.x265.10bit.HDR.DTS-HD.M.torrent (21.42 KB)
回复

使用道具 举报

全部回复7

panbell 发表于 2021-7-21 10:27:12

panbell 来自 4楼

2021-7-21 10:27:12

谢楼主分享

免费评分

参与人数 1K币 -100 违规 +1 收起 理由
花落无声 -100 + 1 违反论坛规则:多个主题回复相同内容(第五章第1条)

查看全部评分

回复 支持 反对

使用道具 举报

seraphimlucifer 发表于 2021-7-20 23:35:01

seraphimlucifer 2

2021-7-20 23:35:01

唉,这电影真适合我这老光棍
回复 支持 反对

使用道具 举报

xdm 发表于 2021-7-21 10:13:59

xdm 3

2021-7-21 10:13:59

没有中文字幕?
回复 支持 反对

使用道具 举报

AFriends 发表于 2021-7-21 21:24:39

AFriends 5

2021-7-21 21:24:39

看封面,似乎是同一个人。
回复 支持 反对

使用道具 举报

bbgrnnji 发表于 2021-7-22 09:06:50

bbgrnnji 6

2021-7-22 09:06:50

老电影拍的不错
回复 支持 反对

使用道具 举报

zxk262411 发表于 2021-7-22 11:19:21

zxk262411 7

2021-7-22 11:19:21

看过原著,居然一直没看这部电影,正好补回来
回复 支持 反对

使用道具 举报

zsad 发表于 2021-7-23 12:51:50

zsad 8

2021-7-23 12:51:50

谢谢楼主分享
回复 支持 反对

使用道具 举报

   发表回复

您需要登录后才可以回帖 登录 | 立即注册

返回列表 本版积分规则

  • 在线客服

  • 返回顶部