微博 微信

Hao4K影音

电视剧频道
电视剧封面:
电视剧名: 古惑丑拍档4k
年  代: 2021  
国  家: 美国
类  别: 剧情 喜剧 
语  言: 英语
字  幕: 英文原版
上映日期: 2021-07-21
文件格式: mkv    
视频效果: 4K(3840x2160)    
资源大小: 5.36 GB
片  长: -
导  演: 马特·尼克斯
剧情简介:  Disney+将开发剧集版[古惑丑拍档]。马特·尼克斯(《天赋异禀》)操刀剧本并担任执行制作人。原版影片由汤姆·汉克斯主演,讲述史考特是一名极端讲究规矩和注意整洁的警探。福星则是世界上最肮脏、最凶恶的一条狗,它的主人不幸因一宗犯罪事件而被误杀,福星成为凶杀案的目击证人。史考特负责调查这个案子,虽然他十分痛恨福星,却不得不为了保护这个目击证人而跟它生活在一起。
古惑丑拍档4k Turner.and.Hooch.S01E01.HDR.2160p.WEB.H265-4k美剧信息
  1. Video
  2. ID : 1
  3. Format : HEVC
  4. Format/Info : High Efficiency Video Coding
  5. Format profile : Main 10@L5@High
  6. HDR format : SMPTE ST 2086, HDR10 compatible
  7. Codec ID : V_MPEGH/ISO/HEVC
  8. Duration : 44 min 57 s
  9. Bit rate : 16.3 Mb/s
  10. Width : 3 840 pixels
  11. Height : 2 160 pixels
  12. Display aspect ratio : 16:9
  13. Frame rate mode : Constant
  14. Frame rate : 23.976 (24000/1001) FPS
  15. Color space : YUV
  16. Chroma subsampling : 4:2:0
  17. Bit depth : 10 bits
  18. Bits/(Pixel*Frame) : 0.082
  19. Stream size : 5.12 GiB (95%)
  20. Default : Yes
  21. Forced : No
  22. Color range : Limited
  23. Color primaries : BT.2020
  24. Transfer characteristics : PQ
  25. Matrix coefficients : BT.2020 non-constant
  26. Mastering display color primaries : Display P3
  27. Mastering display luminance : min: 0.0001 cd/m2, max: 1000 cd/m2

  28. Audio
  29. ID : 2
  30. Format : E-AC-3 JOC
  31. Format/Info : Enhanced AC-3 with Joint Object Coding
  32. Commercial name : Dolby Digital Plus with Dolby Atmos
  33. Codec ID : A_EAC3
  34. Duration : 44 min 57 s
  35. Bit rate mode : Constant
  36. Bit rate : 768 kb/s
  37. Channel(s) : 6 channels
  38. Channel layout : L R C LFE Ls Rs
  39. Sampling rate : 48.0 kHz
  40. Frame rate : 31.250 FPS (1536 SPF)
  41. Compression mode : Lossy
  42. Stream size : 247 MiB (4%)
  43. Title : English
  44. Language : English
  45. Service kind : Complete Main
  46. Default : No
  47. Forced : No
  48. Complexity index : 16
  49. Number of dynamic objects : 15
  50. Bed channel count : 1 channel
  51. Bed channel configuration : LFE

  52. Text #1
  53. ID : 3
  54. Format : UTF-8
  55. Codec ID : S_TEXT/UTF8
  56. Codec ID/Info : UTF-8 Plain Text
  57. Duration : 43 min 53 s
  58. Bit rate : 80 b/s
  59. Count of elements : 724
  60. Stream size : 25.8 KiB (0%)
  61. Title : Chinese Simplified
  62. Language : Chinese
  63. Default : No
  64. Forced : No

  65. Text #2
  66. ID : 4
  67. Format : UTF-8
  68. Codec ID : S_TEXT/UTF8
  69. Codec ID/Info : UTF-8 Plain Text
  70. Duration : 43 min 53 s
  71. Bit rate : 79 b/s
  72. Count of elements : 719
  73. Stream size : 25.6 KiB (0%)
  74. Title : Danish
  75. Language : Danish
  76. Default : No
  77. Forced : No

  78. Text #3
  79. ID : 5
  80. Format : UTF-8
  81. Codec ID : S_TEXT/UTF8
  82. Codec ID/Info : UTF-8 Plain Text
  83. Duration : 43 min 18 s
  84. Bit rate : 71 b/s
  85. Count of elements : 571
  86. Stream size : 22.6 KiB (0%)
  87. Title : Dutch
  88. Language : Dutch
  89. Default : No
  90. Forced : No

  91. Text #4
  92. ID : 6
  93. Format : UTF-8
  94. Codec ID : S_TEXT/UTF8
  95. Codec ID/Info : UTF-8 Plain Text
  96. Duration : 43 min 49 s
  97. Bit rate : 96 b/s
  98. Count of elements : 847
  99. Stream size : 30.8 KiB (0%)
  100. Title : English SDH
  101. Language : English
  102. Default : No
  103. Forced : No

  104. Text #5
  105. ID : 7
  106. Format : UTF-8
  107. Codec ID : S_TEXT/UTF8
  108. Codec ID/Info : UTF-8 Plain Text
  109. Duration : 43 min 12 s
  110. Bit rate : 88 b/s
  111. Count of elements : 753
  112. Stream size : 28.1 KiB (0%)
  113. Title : English
  114. Language : English
  115. Default : No
  116. Forced : No

  117. Text #6
  118. ID : 8
  119. Format : UTF-8
  120. Codec ID : S_TEXT/UTF8
  121. Codec ID/Info : UTF-8 Plain Text
  122. Duration : 43 min 53 s
  123. Bit rate : 74 b/s
  124. Count of elements : 649
  125. Stream size : 24.1 KiB (0%)
  126. Title : Finnish
  127. Language : Finnish
  128. Default : No
  129. Forced : No

  130. Text #7
  131. ID : 9
  132. Format : UTF-8
  133. Codec ID : S_TEXT/UTF8
  134. Codec ID/Info : UTF-8 Plain Text
  135. Duration : 43 min 53 s
  136. Bit rate : 77 b/s
  137. Count of elements : 722
  138. Stream size : 24.9 KiB (0%)
  139. Title : French
  140. Language : French
  141. Default : No
  142. Forced : No

  143. Text #8
  144. ID : 10
  145. Format : UTF-8
  146. Codec ID : S_TEXT/UTF8
  147. Codec ID/Info : UTF-8 Plain Text
  148. Duration : 43 min 53 s
  149. Bit rate : 76 b/s
  150. Count of elements : 697
  151. Stream size : 24.6 KiB (0%)
  152. Title : German
  153. Language : German
  154. Default : No
  155. Forced : No
复制代码


古惑丑拍档4k Turner.and.Hooch.S01E01.HDR.2160p.WEB.H265-4k美剧下载
古惑丑拍档4k Turner.and.Hooch.S01E01.HDR.2160p.WEB.H265【5.36 GB】
[Hao4k]古惑丑拍档4k Turner.and.Hooch.S01E01.HDR.2160p.WEB.H265-EXPLOIT.torrent (14.04 KB)
回复

使用道具 举报

   发表回复

您需要登录后才可以回帖 登录 | 立即注册

返回列表 本版积分规则

  • 在线客服

  • 返回顶部