微博 微信

Hao4K影音

电影频道
电影封面:
片  名: 左拉4K
电影分类: 犯罪 剧情 喜剧 
国  家: 美国 
年  代: 2020年
分 辨 率: 4K(3840x2160)
电影格式: MKV|REMUX 
画质标准: SDR 
音质编码: Dolby Digital Plus Audio 
电影声道: 5.1声道 
帧数/FPS: 23.976 帧
电影语言: 英文原版 
资源大小: 12.81 GB
导  演: 加妮克扎·布拉沃
豆瓣评分: 7.0 分
中文字幕: -
剧情简介: 讲述一名年轻的充满异域风情的舞者同意与一名妓女、她的男友和一名皮条客一起踏上前往弗罗里达的旅行,在途中,她收获到了比想象中更多的东西。
左拉4K.Zola.2020.2160p.WEB-DL.x265.10bit.SDR.DDP5.1.Atmos-4k电影信息
  1. Video
  2. ID : 1
  3. Format : HEVC
  4. Format/Info : High Efficiency Video Coding
  5. Format profile : Main 10@L5@High
  6. Codec ID : V_MPEGH/ISO/HEVC
  7. Duration : 1 h 25 min
  8. Bit rate : 20.6 Mb/s
  9. Width : 3 836 pixels
  10. Height : 2 072 pixels
  11. Display aspect ratio : 1.85:1
  12. Frame rate mode : Constant
  13. Frame rate : 23.976 FPS
  14. Color space : YUV
  15. Chroma subsampling : 4:2:0
  16. Bit depth : 10 bits
  17. Bits/(Pixel*Frame) : 0.108
  18. Stream size : 12.3 GiB (96%)
  19. Language : English
  20. Default : Yes
  21. Forced : No
  22. Color range : Limited
  23. Color primaries : BT.709
  24. Transfer characteristics : BT.709
  25. Matrix coefficients : BT.709

  26. Audio
  27. ID : 2
  28. Format : E-AC-3 JOC
  29. Format/Info : Enhanced AC-3 with Joint Object Coding
  30. Commercial name : Dolby Digital Plus with Dolby Atmos
  31. Codec ID : A_EAC3
  32. Duration : 1 h 25 min
  33. Bit rate mode : Constant
  34. Bit rate : 768 kb/s
  35. Channel(s) : 6 channels
  36. Channel layout : L R C LFE Ls Rs
  37. Sampling rate : 48.0 kHz
  38. Frame rate : 31.250 FPS (1536 SPF)
  39. Compression mode : Lossy
  40. Stream size : 472 MiB (4%)
  41. Title : English
  42. Language : English
  43. Service kind : Complete Main
  44. Default : No
  45. Forced : No
  46. Complexity index : 16
  47. Number of dynamic objects : 15
  48. Bed channel count : 1 channel
  49. Bed channel configuration : LFE

  50. Text
  51. ID : 3
  52. Format : UTF-8
  53. Codec ID : S_TEXT/UTF8
  54. Codec ID/Info : UTF-8 Plain Text
  55. Duration : 1 h 20 min
  56. Bit rate : 59 b/s
  57. Count of elements : 1173
  58. Stream size : 35.1 KiB (0%)
  59. Language : English
  60. Default : Yes
  61. Forced : No
复制代码

左拉4K.Zola.2020.2160p.WEB-DL.x265.10bit.SDR.DDP5.1.Atmos-4K电影下载

左拉4K.Zola.2020.2160p.WEB-DL.x265.10bit.SDR.DDP5.1.Atmos【4K SDR  12.81 GB】
[Hao4K]左拉4K.Zola.2020.2160p.WEB-DL.x265.10bit.SDR.DDP5.1.Atmos-NOGRP.torrent (16.64 KB)
分享到:  QQ好友和群QQ好友和群

网站提醒:

1、交流前,请认真阅读并遵守Hao4K影音《论坛总规则》,违者禁言扣除积分处理;同时欢迎大家共同监督,举报有奖;
2、所有信息发布必须严格遵守中华人民共和国所有法律法规及本地和行业相关规定,严禁发布带有任何违法或违规色彩信息;
3、如果内容对您有帮助,请点赞或评论表示感谢。如有不同观点欢迎讨论,但请尊重作者及其贡献内容,不欢迎任何理由的人身攻击,讨论事情勿针对人。

回复

使用道具 举报

全部回复10

2
mushroom9289 发表于 前天 22:11

mushroom9289 2

前天 22:11

没看过  试试看
回复 支持 反对

使用道具 举报

3
18520199909 发表于 前天 23:11 Hao4K手机版

18520199909 3

前天 23:11

看介绍应该很不错的!
回复 支持 反对

使用道具 举报

4
xgfp 发表于 昨天 08:16

xgfp 4

昨天 08:16

女主看起来很漂亮,谢谢分享
回复 支持 反对

使用道具 举报

5
bbgrnnji 发表于 昨天 08:28

bbgrnnji 5

昨天 08:28

看样子还不错
回复 支持 反对

使用道具 举报

6
2293125093 发表于 昨天 10:04

2293125093 6

昨天 10:04



女主看起来很漂亮,谢谢分享
回复 支持 反对

使用道具 举报

7
aftok123 发表于 昨天 11:19

aftok123 7

昨天 11:19

封面看起来不错
回复 支持 反对

使用道具 举报

8
chyush 发表于 昨天 11:19

chyush 8

昨天 11:19

7分,必须看看
回复 支持 反对

使用道具 举报

9
skyfeel 发表于 昨天 11:21

skyfeel 9

昨天 11:21

没有中文字幕吗?
回复 支持 反对

使用道具 举报

10
zsad 发表于 昨天 12:49

zsad 10

昨天 12:49

谢谢楼主分享
回复 支持 反对

使用道具 举报

11
adamshoo 发表于 昨天 13:17

adamshoo 11

昨天 13:17

这部评分不错,可以看看
回复 支持 反对

使用道具 举报

   发表回复

您需要登录后才可以回帖 登录 | 立即注册

返回列表 本版积分规则

  • 在线客服

  • 返回顶部