微博 微信

Hao4K影音

电影频道
电影封面:
片  名: 俑之城 / Realm of Terracotta
电影分类: 冒险 奇幻 动画 
国  家: 中国大陆 
年  代: 2021年
分 辨 率: 4K(3840x2160)
电影格式: mp4 
画质标准: HDR 
音质编码: DTS HD High Resolution 
电影声道: 5.1声道 
帧数/FPS: 31.250 帧
电影语言: 中文简体 
资源大小: 12.58 GB
导  演: 丁亮
豆瓣评分: 6.0 分
中文字幕: -
剧情简介: 这是一个以俑为基础创造的全新的地下世界,中国历朝历代都有俑,他们深埋地下构成了一个庞大又奇幻的地下世界,不同的俑城之间一旦联通就可以串联朝代,跨越时间。它与现实世界相平行,但却鲜为人知。 目前第一部《俑之城》的故事以闻名世界的秦代兵马俑为主题,开启整个地下俑世界的第一块地图,一个你意想不到的地下世界即将揭晓。
地下世界,千奇百怪,不仅生活着兵马俑,还有各种各样的青铜文物复活的青铜兽和一种叫做“地犼”的地底原生生物。
地犼与俑的战斗旷日持久,男主角蒙远是地下秦陵中一打杂的杂役俑,他和神秘少女史玉合作抓捕地犼、经历险境,不料却发现地犼与兵俑战斗不息的谜团,因此遭遇更大危机......
秦陵地宫,俑和怪常年战争。底层兵俑蒙远为成为“一等兵俑”去抓怪,途中和女俑史玉一起组队并相爱,最后他们发现了怪入侵秦陵的背后真相,可这时俑怪之间的大战已经开启,蒙远和史玉合力阻止战争,给俑之城带来和平。
  1. General

  2. Complete name : [color=#555555][font="][size=16px]俑之城 / Realm of Terracotta[/size][/font][/color]

  3. Format : MPEG-4

  4. Format profile : Base Media

  5. Codec ID : isom (isom/iso2/mp41)

  6. File size : 12.6 GiB

  7. Duration : 1 h 51 min

  8. Overall bit rate : 16.2 Mb/s

  9. Writing application : OurTV Multimedia Platform



  10. Video

  11. ID : 1

  12. Format : HEVC

  13. Format/Info : High Efficiency Video Coding

  14. Format profile : Main@L5@Main

  15. Codec ID : hev1

  16. Codec ID/Info : High Efficiency Video Coding

  17. Duration : 1 h 51 min

  18. Bit rate : 15.8 Mb/s

  19. Width : 3 840 pixels

  20. Height : 1 608 pixels

  21. Display aspect ratio : 2.40:1

  22. Frame rate mode : Constant

  23. Frame rate : 25.000 FPS

  24. Color space : YUV

  25. Chroma subsampling : 4:2:0

  26. Bit depth : 8 bits

  27. Bits/(Pixel*Frame) : 0.102

  28. Stream size : 12.2 GiB (97%)

  29. Codec configuration box : hvcC



  30. Audio #1

  31. ID : 2

  32. Format : E-AC-3

  33. Format/Info : Enhanced AC-3

  34. Commercial name : Dolby Digital Plus

  35. Codec ID : ec-3

  36. Duration : 1 h 51 min

  37. Bit rate mode : Constant

  38. Bit rate : 256 kb/s

  39. Channel(s) : 2 channels

  40. Channel layout : L R

  41. Sampling rate : 48.0 kHz

  42. Frame rate : 31.250 FPS (1536 SPF)

  43. Compression mode : Lossy

  44. Stream size : 203 MiB (2%)

  45. Title : 国语DDP2.0

  46. Language : Chinese

  47. Service kind : Complete Main

  48. Default : Yes

  49. Alternate group : 1



  50. Audio #2

  51. ID : 3

  52. Format : AAC LC

  53. Format/Info : Advanced Audio Codec Low Complexity

  54. Codec ID : mp4a-40-2

  55. Duration : 1 h 51 min

  56. Bit rate mode : Constant

  57. Bit rate : 192 kb/s

  58. Channel(s) : 2 channels

  59. Channel layout : L R

  60. Sampling rate : 44.1 kHz

  61. Frame rate : 43.066 FPS (1024 SPF)

  62. Compression mode : Lossy

  63. Stream size : 151 MiB (1%)
  64. Title : 国语AAC2.0

  65. Language : Chinese

  66. Default : No

  67. Alternate group : 1
复制代码


俑之城[国语音轨下载地址:

magnet:?xt=urn:btih:C806540F9C4D5BF5BD1552D4D469FBD42E59A0FD


资源来源不易,你回复就是我发帖的动力,欢迎影音爱好者加我微信为好友,共同探讨!



回复

使用道具 举报

全部回复2

bbgrnnji 发表于 2021-8-18 08:59:13

bbgrnnji 2

2021-8-18 08:59:13

原来是动画片
回复 支持 反对

使用道具 举报

Jeffrylu 发表于 2021-8-18 20:32:01

Jeffrylu 3

2021-8-18 20:32:01

好快,影院一个月前才停档的。
回复 支持 反对

使用道具 举报

   发表回复

您需要登录后才可以回帖 登录 | 立即注册

返回列表 本版积分规则

  • 在线客服

  • 返回顶部