微博 微信

Hao4K影音

电影频道
电影封面:
片  名: 特种部队:蛇眼起源4k
电影分类: 动作 科幻 冒险 
国  家: 美国 加拿大 
年  代: 2021年
分 辨 率: 4K(3840x2160)
电影格式: MKV|REMUX 
画质标准: HDR SDR 
音质编码: Dolby Digital Plus Audio 
电影声道: 5.1声道 
帧数/FPS: 23.976 帧
电影语言: 英文原版 
资源大小: 13.31 GB
导  演: 罗伯特·斯文克
豆瓣评分: 5.7 分
中文字幕: /thread-60757-1-1.html
剧情简介: 亨利·戈尔丁饰演一名因背负了复杂过去而隐忍的独行者,代号蛇眼。一次偶然,他救下了岚影一族的准接班人,从而被邀请加入他们在日本的组织。在那里,岚影一族不但教会了蛇眼如何成为一名忍者,也给了他一直想要的一个家。但当蛇眼过去的秘密被逐渐揭开,他的信誉以及对组织的忠诚也将受到考验,即便这会使他会失去最亲近的人的信任。特种部队原著中的经典角色也将在《特种部队:蛇眼起源》中一一亮相。
义勇群英:蛇眼复仇战(港) / 特种部队:蛇眼之战 (台) / 特种部队:蛇眼 / 蛇眼 / Snake Eyes/特种部队:蛇眼起源4k  Snake.Eyes.G.I.Joe.Origins.2021.2160p.AMZN.WEB-DL.x265.10bit.HDR10Plus.DDP5.1.Atmos电影信息
  1. Video
  2. ID : 1
  3. Format : HEVC
  4. Format/Info : High Efficiency Video Coding
  5. Format profile : Main 10@L5@Main
  6. HDR format : SMPTE ST 2094 App 4, Version 1, HDR10+ Profile B compatible
  7. Codec ID : V_MPEGH/ISO/HEVC
  8. Duration : 2 h 1 min
  9. Bit rate : 14.9 Mb/s
  10. Width : 3 840 pixels
  11. Height : 1 600 pixels
  12. Display aspect ratio : 2.40:1
  13. Frame rate mode : Constant
  14. Frame rate : 23.976 (24000/1001) FPS
  15. Color space : YUV
  16. Chroma subsampling : 4:2:0
  17. Bit depth : 10 bits
  18. Bits/(Pixel*Frame) : 0.101
  19. Stream size : 12.7 GiB (95%)
  20. Default : Yes
  21. Forced : No
  22. Color range : Limited
  23. Color primaries : BT.2020
  24. Transfer characteristics : PQ
  25. Matrix coefficients : BT.2020 non-constant
  26. Mastering display color primaries : Display P3
  27. Mastering display luminance : min: 0.0001 cd/m2, max: 1000 cd/m2
  28. Maximum Content Light Level : 635 cd/m2
  29. Maximum Frame-Average Light Level : 281 cd/m2

  30. Audio
  31. ID : 2
  32. Format : E-AC-3 JOC
  33. Format/Info : Enhanced AC-3 with Joint Object Coding
  34. Commercial name : Dolby Digital Plus with Dolby Atmos
  35. Codec ID : A_EAC3
  36. Duration : 2 h 1 min
  37. Bit rate mode : Constant
  38. Bit rate : 768 kb/s
  39. Channel(s) : 6 channels
  40. Channel layout : L R C LFE Ls Rs
  41. Sampling rate : 48.0 kHz
  42. Frame rate : 31.250 FPS (1536 SPF)
  43. Compression mode : Lossy
  44. Stream size : 667 MiB (5%)
  45. Title : English
  46. Language : English
  47. Service kind : Complete Main
  48. Default : Yes
  49. Forced : No
  50. Complexity index : 16
  51. Number of dynamic objects : 15
  52. Bed channel count : 1 channel
  53. Bed channel configuration : LFE

  54. Text #1
  55. ID : 3
  56. Format : UTF-8
  57. Codec ID : S_TEXT/UTF8
  58. Codec ID/Info : UTF-8 Plain Text
  59. Duration : 1 h 52 min
  60. Bit rate : 31 b/s
  61. Count of elements : 978
  62. Stream size : 25.7 KiB (0%)
  63. Title : English [SDH]
  64. Language : English
  65. Default : No
  66. Forced : No

  67. Text #2
  68. ID : 4
  69. Format : UTF-8
  70. Codec ID : S_TEXT/UTF8
  71. Codec ID/Info : UTF-8 Plain Text
  72. Duration : 1 h 52 min
  73. Bit rate : 27 b/s
  74. Count of elements : 790
  75. Stream size : 22.9 KiB (0%)
  76. Title : English
  77. Language : English
  78. Default : No
  79. Forced : No
复制代码

义勇群英:蛇眼复仇战(港) / 特种部队:蛇眼之战 (台) / 特种部队:蛇眼 / 蛇眼 / Snake Eyes/特种部队:蛇眼起源4k  Snake.Eyes.G.I.Joe.Origins.2021.2160p.AMZN.WEB-DL.x265.10bit.HDR10Plus.DDP5.1.Atmos电影下载

特种部队:蛇眼起源4k  Snake.Eyes.G.I.Joe.Origins.2021.2160p.AMZN.WEB-DL.x265.10bit.HDR10Plus.DDP5.1.Atmos【4K HDR 13.30 GB】
[Hao4k]特种部队:蛇眼起源4k Snake.Eyes.G.I.Joe.Origins.2021.2160p.AMZN.WEB-DL.x2.torrent (17.32 KB, 售价: 3 个K币)

特种部队:蛇眼起源4k  Snake.Eyes.G.I.Joe.Origins.2021.2160p.AMZN.WEB-DL.x265.10bit.HDR10Plus.DDP5.1.Atmos【4K HDR 13.30 GB】
迅雷云不限速下载链接:https://pan.xunlei.com/s/VMhTRaBUS9MK944XdOXJr23rA1
提取码: 提取码.txt (82 Bytes, 售价: 3 个K币)


特种部队:蛇眼起源4k  Snake.Eyes.G.I.Joe.Origins.2021.2160p.AMZN.WEB-DL.x265.10bit.SDR.DDP5.1.Atmos【4K SDR 13.31 GB】
[Hao4k]特种部队:蛇眼起源4k Snake.Eyes.G.I.Joe.Origins.2021.2160p.AMZN.WEB-DL.x2.torrent (17.31 KB, 售价: 3 个K币)

特种部队:蛇眼起源4k电影中文字幕下载 感谢K友@老树分享的字幕
https://www.hao4k.cn/thread-60757-1-1.html
分享到:  QQ好友和群QQ好友和群

网站提醒:

1、交流前,请认真阅读并遵守Hao4K影音《论坛总规则》,违者禁言扣除积分处理;同时欢迎大家共同监督,举报有奖;
2、所有信息发布必须严格遵守中华人民共和国所有法律法规及本地和行业相关规定,严禁发布带有任何违法或违规色彩信息;
3、如果内容对您有帮助,请点赞或评论表示感谢。如有不同观点欢迎讨论,但请尊重作者及其贡献内容,不欢迎任何理由的人身攻击,讨论事情勿针对人。

回复

使用道具 举报

全部回复252

2
yy20058 发表于 2021-8-17 16:59:27

yy20058 2

2021-8-17 16:59:27

好新的电影,下载看看。谢谢
回复 支持 反对

使用道具 举报

3
lesliebaggio 发表于 2021-8-17 17:12:45

lesliebaggio 3

2021-8-17 17:12:45

辛苦了,请问这个web-dl和原盘有什么区别呢?
回复 支持 反对

使用道具 举报

4
r31325 发表于 2021-8-17 17:14:38

r31325 4

2021-8-17 17:14:38

这个系列2021出新片了?
回复 支持 反对

使用道具 举报

5
liuqiansheng008 发表于 2021-8-17 17:14:59

liuqiansheng008 5

2021-8-17 17:14:59

还没字幕吧
回复 支持 反对

使用道具 举报

6
最爱经典 发表于 2021-8-17 17:21:41

最爱经典 6

2021-8-17 17:21:41

谢谢LZ分享,好快哈

回复 支持 反对

使用道具 举报

7
raycl 发表于 2021-8-17 17:36:34

raycl 7

2021-8-17 17:36:34

HDR10的种子错了,实际下载的是SDR版
回复 支持 1 反对 0

使用道具 举报

8
davidavid 发表于 2021-8-17 17:59:48

davidavid 8

2021-8-17 17:59:48

2021出新片了吗这个系列!太棒了
回复 支持 反对

使用道具 举报

9
beixxxbei 发表于 2021-8-17 18:08:11

beixxxbei 9

2021-8-17 18:08:11

60帧的超高清来一发
回复 支持 反对

使用道具 举报

10
18621984421 发表于 2021-8-17 18:09:11

18621984421 10

2021-8-17 18:09:11

种子发错了
回复 支持 反对

使用道具 举报

11
18621984421 发表于 2021-8-17 18:12:02

18621984421 11

2021-8-17 18:12:02

HDR版本的种子不对
回复 支持 反对

使用道具 举报

12
yazool 发表于 2021-8-17 18:34:09

yazool 12

2021-8-17 18:34:09

必须支持一下啊,谢谢分享
回复 支持 反对

使用道具 举报

13
msi54 发表于 2021-8-17 18:37:15

msi54 13

2021-8-17 18:37:15

字幕?!?!
回复 支持 反对

使用道具 举报

14
曾经年轻 发表于 2021-8-17 18:41:26

曾经年轻 14

2021-8-17 18:41:26

感谢楼主无私分享  
回复 支持 反对

使用道具 举报

15
百人斩少女 发表于 2021-8-17 18:56:02

百人斩少女 15

2021-8-17 18:56:02

速度慢啊,什么时候能有字幕啊?
回复 支持 反对

使用道具 举报

16
slithpr 发表于 2021-8-17 19:01:00

slithpr 16

2021-8-17 19:01:00

这是新片?
回复 支持 反对

使用道具 举报

17
13450378889 发表于 2021-8-17 19:06:38

13450378889 17

2021-8-17 19:06:38

大家都用什么软件下载的   迅雷下载什么都是贼慢 没开会员
回复 支持 反对

使用道具 举报

18
lqsong 发表于 2021-8-17 19:08:32

lqsong 18

2021-8-17 19:08:32

谢谢分享!
回复 支持 反对

使用道具 举报

   发表回复

您需要登录后才可以回帖 登录 | 立即注册

返回列表 本版积分规则

  • 在线客服

  • 返回顶部