微博 微信

Hao4K影音

电视剧频道
电视剧封面:
电视剧名: 追寻卡梅伦 第一季4k
年  代: 2016  
国  家: 美国
类  别: 真人秀 
语  言: 英语
字  幕: 英文原版
上映日期: 2016-12-27
文件格式: mkv    
视频效果: 4K(3840x2160)    
资源大小: 34.52 GB
片  长: 31 分钟
导  演: Jonathan Craig
剧情简介: Go behind the scenes with social media sensation Cameron Dallas as he takes his career to the next level on an international tour.
追寻卡梅伦 第一季4k Chasing.Cameron.S01.2160p.NF.WEB-DL.DD5.1.x265美剧信息
  1. Video
  2. ID : 1
  3. Format : HEVC
  4. Format/Info : High Efficiency Video Coding
  5. Format profile : Main 10@L5@Main
  6. Codec ID : V_MPEGH/ISO/HEVC
  7. Duration : 33 min 9 s
  8. Bit rate : 15.2 Mb/s
  9. Width : 3 840 pixels
  10. Height : 2 160 pixels
  11. Display aspect ratio : 16:9
  12. Frame rate mode : Constant
  13. Frame rate : 23.976 (24000/1001) FPS
  14. Color space : YUV
  15. Chroma subsampling : 4:2:0
  16. Bit depth : 10 bits
  17. Bits/(Pixel*Frame) : 0.076
  18. Stream size : 3.51 GiB (97%)
  19. Default : Yes
  20. Forced : No
  21. Color range : Limited
  22. Color primaries : BT.709
  23. Transfer characteristics : BT.709
  24. Matrix coefficients : BT.709

  25. Audio
  26. ID : 2
  27. Format : AC-3
  28. Format/Info : Audio Coding 3
  29. Commercial name : Dolby Digital
  30. Codec ID : A_AC3
  31. Duration : 33 min 9 s
  32. Bit rate mode : Constant
  33. Bit rate : 384 kb/s
  34. Channel(s) : 6 channels
  35. Channel layout : L R C LFE Ls Rs
  36. Sampling rate : 48.0 kHz
  37. Frame rate : 31.250 FPS (1536 SPF)
  38. Compression mode : Lossy
  39. Stream size : 91.1 MiB (2%)
  40. Title : English
  41. Language : English
  42. Service kind : Complete Main
  43. Default : Yes
  44. Forced : No

  45. Text #1
  46. ID : 3
  47. Format : UTF-8
  48. Codec ID : S_TEXT/UTF8
  49. Codec ID/Info : UTF-8 Plain Text
  50. Duration : 31 min 37 s
  51. Bit rate : 2 b/s
  52. Count of elements : 14
  53. Stream size : 530 Bytes (0%)
  54. Title : English (Forced)
  55. Language : English
  56. Default : Yes
  57. Forced : Yes

  58. Text #2
  59. ID : 4
  60. Format : UTF-8
  61. Codec ID : S_TEXT/UTF8
  62. Codec ID/Info : UTF-8 Plain Text
  63. Duration : 32 min 25 s
  64. Bit rate : 122 b/s
  65. Count of elements : 630
  66. Stream size : 29.1 KiB (0%)
  67. Title : English
  68. Language : English
  69. Default : No
  70. Forced : No

  71. Text #3
  72. ID : 5
  73. Format : UTF-8
  74. Codec ID : S_TEXT/UTF8
  75. Codec ID/Info : UTF-8 Plain Text
  76. Duration : 32 min 38 s
  77. Bit rate : 166 b/s
  78. Count of elements : 631
  79. Stream size : 39.7 KiB (0%)
  80. Title : Arabic
  81. Language : Arabic
  82. Default : No
  83. Forced : No

  84. Text #4
  85. ID : 6
  86. Format : UTF-8
  87. Codec ID : S_TEXT/UTF8
  88. Codec ID/Info : UTF-8 Plain Text
  89. Duration : 32 min 49 s
  90. Bit rate : 95 b/s
  91. Count of elements : 634
  92. Stream size : 23.0 KiB (0%)
  93. Title : Chinese (Simplified)
  94. Language : Chinese
  95. Default : No
  96. Forced : No

  97. Text #5
  98. ID : 7
  99. Format : UTF-8
  100. Codec ID : S_TEXT/UTF8
  101. Codec ID/Info : UTF-8 Plain Text
  102. Duration : 32 min 36 s
  103. Bit rate : 97 b/s
  104. Count of elements : 635
  105. Stream size : 23.3 KiB (0%)
  106. Title : Chinese (Traditional)
  107. Language : Chinese
  108. Default : No
  109. Forced : No

  110. Text #6
  111. ID : 8
  112. Format : UTF-8
  113. Codec ID : S_TEXT/UTF8
  114. Codec ID/Info : UTF-8 Plain Text
  115. Duration : 32 min 50 s
  116. Bit rate : 94 b/s
  117. Count of elements : 610
  118. Stream size : 22.6 KiB (0%)
  119. Title : Danish
  120. Language : Danish
  121. Default : No
  122. Forced : No

  123. Text #7
  124. ID : 9
  125. Format : UTF-8
  126. Codec ID : S_TEXT/UTF8
  127. Codec ID/Info : UTF-8 Plain Text
  128. Duration : 33 min 2 s
  129. Bit rate : 75 b/s
  130. Count of elements : 571
  131. Stream size : 18.3 KiB (0%)
  132. Title : Dutch
  133. Language : Dutch
  134. Default : No
  135. Forced : No

  136. Text #8
  137. ID : 10
  138. Format : UTF-8
  139. Codec ID : S_TEXT/UTF8
  140. Codec ID/Info : UTF-8 Plain Text
  141. Duration : 33 min 2 s
  142. Bit rate : 100 b/s
  143. Count of elements : 572
  144. Stream size : 24.2 KiB (0%)
  145. Title : German
  146. Language : German
  147. Default : No
  148. Forced : No

  149. Text #9
  150. ID : 11
  151. Format : UTF-8
  152. Codec ID : S_TEXT/UTF8
  153. Codec ID/Info : UTF-8 Plain Text
  154. Duration : 32 min 39 s
  155. Bit rate : 153 b/s
  156. Count of elements : 559
  157. Stream size : 36.7 KiB (0%)
  158. Title : Greek
  159. Language : Greek
  160. Default : No
  161. Forced : No

  162. Text #10
  163. ID : 12
  164. Format : UTF-8
  165. Codec ID : S_TEXT/UTF8
  166. Codec ID/Info : UTF-8 Plain Text
  167. Duration : 32 min 49 s
  168. Bit rate : 98 b/s
  169. Count of elements : 561
  170. Stream size : 23.8 KiB (0%)
  171. Title : Finnish
  172. Language : Finnish
  173. Default : No
  174. Forced : No

  175. Text #11
  176. ID : 13
  177. Format : UTF-8
  178. Codec ID : S_TEXT/UTF8
  179. Codec ID/Info : UTF-8 Plain Text
  180. Duration : 33 min 2 s
  181. Bit rate : 82 b/s
  182. Count of elements : 608
  183. Stream size : 19.9 KiB (0%)
  184. Title : French
  185. Language : French
  186. Default : No
  187. Forced : No

  188. Text #12
  189. ID : 14
  190. Format : UTF-8
  191. Codec ID : S_TEXT/UTF8
  192. Codec ID/Info : UTF-8 Plain Text
  193. Duration : 33 min 2 s
  194. Bit rate : 162 b/s
  195. Count of elements : 630
  196. Stream size : 39.2 KiB (0%)
  197. Title : Hebrew
  198. Language : Hebrew
  199. Default : No
  200. Forced : No

  201. Text #13
  202. ID : 15
  203. Format : UTF-8
  204. Codec ID : S_TEXT/UTF8
  205. Codec ID/Info : UTF-8 Plain Text
  206. Duration : 33 min 2 s
  207. Bit rate : 88 b/s
  208. Count of elements : 607
  209. Stream size : 21.4 KiB (0%)
  210. Title : Italian
  211. Language : Italian
  212. Default : No
  213. Forced : No

  214. Text #14
  215. ID : 16
  216. Format : UTF-8
  217. Codec ID : S_TEXT/UTF8
  218. Codec ID/Info : UTF-8 Plain Text
  219. Duration : 32 min 49 s
  220. Bit rate : 104 b/s
  221. Count of elements : 649
  222. Stream size : 25.1 KiB (0%)
  223. Title : Japanese
  224. Language : Japanese
  225. Default : No
  226. Forced : No

  227. Text #15
  228. ID : 17
  229. Format : UTF-8
  230. Codec ID : S_TEXT/UTF8
  231. Codec ID/Info : UTF-8 Plain Text
  232. Duration : 33 min 2 s
  233. Bit rate : 114 b/s
  234. Count of elements : 635
  235. Stream size : 27.6 KiB (0%)
  236. Title : Korean
  237. Language : Korean
  238. Default : No
  239. Forced : No

  240. Text #16
  241. ID : 18
  242. Format : UTF-8
  243. Codec ID : S_TEXT/UTF8
  244. Codec ID/Info : UTF-8 Plain Text
  245. Duration : 33 min 2 s
  246. Bit rate : 91 b/s
  247. Count of elements : 593
  248. Stream size : 22.2 KiB (0%)
  249. Title : Norwegian
  250. Language : Norwegian
  251. Default : No
  252. Forced : No

  253. Text #17
  254. ID : 19
  255. Format : UTF-8
  256. Codec ID : S_TEXT/UTF8
  257. Codec ID/Info : UTF-8 Plain Text
  258. Duration : 33 min 2 s
  259. Bit rate : 95 b/s
  260. Count of elements : 616
  261. Stream size : 23.0 KiB (0%)
  262. Title : Polish
  263. Language : Polish
  264. Default : No
  265. Forced : No

  266. Text #18
  267. ID : 20
  268. Format : UTF-8
  269. Codec ID : S_TEXT/UTF8
  270. Codec ID/Info : UTF-8 Plain Text
  271. Duration : 33 min 2 s
  272. Bit rate : 92 b/s
  273. Count of elements : 613
  274. Stream size : 22.3 KiB (0%)
  275. Title : Portuguese (Brazilian)
  276. Language : Portuguese
  277. Default : No
  278. Forced : No

  279. Text #19
  280. ID : 21
  281. Format : UTF-8
  282. Codec ID : S_TEXT/UTF8
  283. Codec ID/Info : UTF-8 Plain Text
  284. Duration : 33 min 2 s
  285. Bit rate : 100 b/s
  286. Count of elements : 617
  287. Stream size : 24.3 KiB (0%)
  288. Title : Portuguese (European)
  289. Language : Portuguese
  290. Default : No
  291. Forced : No

  292. Text #20
  293. ID : 22
  294. Format : UTF-8
  295. Codec ID : S_TEXT/UTF8
  296. Codec ID/Info : UTF-8 Plain Text
  297. Duration : 32 min 34 s
  298. Bit rate : 98 b/s
  299. Count of elements : 603
  300. Stream size : 23.4 KiB (0%)
  301. Title : Romanian
  302. Language : Romanian
  303. Default : No
  304. Forced : No

  305. Text #21
  306. ID : 23
  307. Format : UTF-8
  308. Codec ID : S_TEXT/UTF8
  309. Codec ID/Info : UTF-8 Plain Text
  310. Duration : 33 min 2 s
  311. Bit rate : 94 b/s
  312. Count of elements : 628
  313. Stream size : 22.8 KiB (0%)
  314. Title : Spanish (European)
  315. Language : Spanish
  316. Default : No
  317. Forced : No

  318. Text #22
  319. ID : 24
  320. Format : UTF-8
  321. Codec ID : S_TEXT/UTF8
  322. Codec ID/Info : UTF-8 Plain Text
  323. Duration : 33 min 2 s
  324. Bit rate : 95 b/s
  325. Count of elements : 625
  326. Stream size : 23.1 KiB (0%)
  327. Title : Spanish (Latin America)
  328. Language : Spanish
  329. Default : No
  330. Forced : No

  331. Text #23
  332. ID : 25
  333. Format : UTF-8
  334. Codec ID : S_TEXT/UTF8
  335. Codec ID/Info : UTF-8 Plain Text
  336. Duration : 32 min 58 s
  337. Bit rate : 86 b/s
  338. Count of elements : 567
  339. Stream size : 20.9 KiB (0%)
  340. Title : Swedish
  341. Language : Swedish
  342. Default : No
  343. Forced : No

  344. Text #24
  345. ID : 26
  346. Format : UTF-8
  347. Codec ID : S_TEXT/UTF8
  348. Codec ID/Info : UTF-8 Plain Text
  349. Duration : 33 min 2 s
  350. Bit rate : 246 b/s
  351. Count of elements : 637
  352. Stream size : 59.5 KiB (0%)
  353. Title : Thai
  354. Language : Thai
  355. Default : No
  356. Forced : No

  357. Text #25
  358. ID : 27
  359. Format : UTF-8
  360. Codec ID : S_TEXT/UTF8
  361. Codec ID/Info : UTF-8 Plain Text
  362. Duration : 33 min 2 s
  363. Bit rate : 86 b/s
  364. Count of elements : 624
  365. Stream size : 21.0 KiB (0%)
  366. Title : Turkish
  367. Language : Turkish
  368. Default : No
  369. Forced : No

  370. Text #26
  371. ID : 28
  372. Format : UTF-8
  373. Codec ID : S_TEXT/UTF8
  374. Codec ID/Info : UTF-8 Plain Text
  375. Duration : 33 min 2 s
  376. Bit rate : 118 b/s
  377. Count of elements : 614
  378. Stream size : 28.8 KiB (0%)
  379. Title : Vietnamese
  380. Language : Vietnamese
  381. Default : No
  382. Forced : No
复制代码

追寻卡梅伦 第一季4k Chasing.Cameron.S01.2160p.NF.WEB-DL.DD5.1.x265美剧下载

追寻卡梅伦 第一季4k Chasing.Cameron.S01.2160p.NF.WEB-DL.DD5.1.x265【34.52 GB】
[Hao4k]追寻卡梅伦 第一季4k Chasing.Cameron.S01.2160p.NF.WEB-DL.DD5.1.x265-TrollUHD.torrent (44.63 KB)
回复

使用道具 举报

全部回复1

f7anki3 发表于 2021-8-18 14:30:28

f7anki3 2

2021-8-18 14:30:28

我当年居然关注过这个网红的VINE。。。
回复 支持 反对

使用道具 举报

   发表回复

您需要登录后才可以回帖 登录 | 立即注册

返回列表 本版积分规则

  • 在线客服

  • 返回顶部