微博 微信

Hao4K影音

电影频道
电影封面:
片  名: 厄运假期4k
电影分类: 动作 犯罪 惊悚 
国  家: 美国 意大利 其他 
年  代: 2021年
分 辨 率: 4K(3840x2160)
电影格式: MKV|REMUX 
画质标准: SDR 
音质编码: Dolby Digital Plus Audio 
电影声道: 5.1声道 
帧数/FPS: 24.000 帧
电影语言: 中文简体 中文繁体 英文原版 
资源大小: 22.44 GB
导  演: 费迪南多·西托·菲洛马里诺
豆瓣评分: 6.1 分
中文字幕: -
剧情简介: 美籍游客贝克特在希腊发生严重车祸后,发现自己莫名身处一场危险政治阴谋的核心。为了保命,他被迫展开逃亡。
凶险假期(港) / 贝克特 / 生而被杀 / 生来被谋杀 / Born to Be Murdered/厄运假期4k Beckett.2021.2160p.NF.WEBRip.x265.10bit.SDR.DDP5.1-4k电影信息
  1. Video
  2. ID : 1
  3. Format : HEVC
  4. Format/Info : High Efficiency Video Coding
  5. Format profile : Main 10@L5.1@High
  6. Codec ID : V_MPEGH/ISO/HEVC
  7. Duration : 1 h 50 min
  8. Bit rate : 28.5 Mb/s
  9. Width : 3 840 pixels
  10. Height : 2 076 pixels
  11. Display aspect ratio : 1.85:1
  12. Frame rate mode : Constant
  13. Frame rate : 24.000 FPS
  14. Color space : YUV
  15. Chroma subsampling : 4:2:0 (Type 2)
  16. Bit depth : 10 bits
  17. Bits/(Pixel*Frame) : 0.149
  18. Stream size : 21.9 GiB (98%)
  19. Writing library : x265 3.5+10-82786fccc:[Windows][GCC 11.1.0][64 bit] 10bit
  20. Encoding settings : cpuid=1111039 / frame-threads=4 / numa-pools=24 / wpp / no-pmode / no-pme / no-psnr / ssim / log-level=2 / input-csp=1 / input-res=3840x2076 / interlace=0 / total-frames=158541 / level-idc=51 / high-tier=1 / uhd-bd=0 / ref=4 / no-allow-non-conformance / repeat-headers / annexb / no-aud / no-eob / no-eos / hrd / info / hash=0 / no-temporal-layers / no-open-gop / min-keyint=5 / keyint=240 / gop-lookahead=0 / bframes=8 / b-adapt=2 / b-pyramid / bframe-bias=0 / rc-lookahead=72 / lookahead-slices=0 / scenecut=40 / hist-scenecut=0 / radl=0 / no-splice / no-intra-refresh / ctu=64 / min-cu-size=8 / no-rect / no-amp / max-tu-size=32 / tu-inter-depth=1 / tu-intra-depth=1 / limit-tu=0 / rdoq-level=2 / dynamic-rd=0.00 / no-ssim-rd / signhide / no-tskip / nr-intra=0 / nr-inter=0 / no-constrained-intra / no-strong-intra-smoothing / max-merge=4 / limit-refs=3 / no-limit-modes / me=3 / subme=5 / merange=48 / temporal-mvp / no-frame-dup / hme / Level / merange / L0,L1,L2=16,32,48 / weightp / weightb / no-analyze-src-pics / deblock=-3:-3 / no-sao / no-sao-non-deblock / rd=4 / selective-sao=0 / no-early-skip / rskip / no-fast-intra / no-tskip-fast / no-cu-lossless / b-intra / no-splitrd-skip / rdpenalty=0 / psy-rd=2.00 / psy-rdoq=1.00 / no-rd-refine / no-lossless / cbqpoffs=0 / crqpoffs=0 / rc=crf / crf=22.0 / qcomp=0.65 / qpstep=4 / stats-write=0 / stats-read=0 / vbv-maxrate=160000 / vbv-bufsize=160000 / vbv-init=0.9 / min-vbv-fullness=50.0 / max-vbv-fullness=80.0 / crf-max=0.0 / crf-min=0.0 / ipratio=1.35 / pbratio=1.25 / aq-mode=2 / aq-strength=0.80 / no-cutree / zone-count=1 / zones: / start-frame=147731 / end-frame=158541 / qp=40 / no-strict-cbr / qg-size=32 / no-rc-grain / qpmax=69 / qpmin=0 / no-const-vbv / sar=1 / overscan=0 / videoformat=5 / range=0 / colorprim=1 / transfer=1 / colormatrix=1 / chromaloc=1 / chromaloc-top=2 / chromaloc-bottom=2 / display-window=0 / cll=0,0 / min-luma=0 / max-luma=1023 / log2-max-poc-lsb=8 / vui-timing-info / vui-hrd-info / slices=1 / no-opt-qp-pps / no-opt-ref-list-length-pps / no-multi-pass-opt-rps / scenecut-bias=0.05 / hist-threshold=0.03 / no-opt-cu-delta-qp / no-aq-motion / no-hdr10 / no-hdr10-opt / no-dhdr10-opt / no-idr-recovery-sei / analysis-reuse-level=0 / analysis-save-reuse-level=0 / analysis-load-reuse-level=0 / scale-factor=0 / refine-intra=0 / refine-inter=0 / refine-mv=1 / refine-ctu-distortion=0 / no-limit-sao / ctu-info=0 / no-lowpass-dct / refine-analysis-type=0 / copy-pic=1 / max-ausize-factor=1.0 / no-dynamic-refine / no-single-sei / no-hevc-aq / no-svt / no-field / qp-adaptation-range=1.00 / scenecut-aware-qp=0conformance-window-offsets / right=0 / bottom=0 / decoder-max-rate=0 / no-vbv-live-multi-pass
  21. Default : Yes
  22. Forced : No
  23. Color range : Limited
  24. Color primaries : BT.709
  25. Transfer characteristics : BT.709
  26. Matrix coefficients : BT.709

  27. Audio
  28. ID : 2
  29. Format : E-AC-3
  30. Format/Info : Enhanced AC-3
  31. Commercial name : Dolby Digital Plus
  32. Codec ID : A_EAC3
  33. Duration : 1 h 50 min
  34. Bit rate mode : Constant
  35. Bit rate : 640 kb/s
  36. Channel(s) : 6 channels
  37. Channel layout : L R C LFE Ls Rs
  38. Sampling rate : 48.0 kHz
  39. Frame rate : 31.250 FPS (1536 SPF)
  40. Compression mode : Lossy
  41. Delay relative to video : 6 ms
  42. Stream size : 504 MiB (2%)
  43. Language : English
  44. Service kind : Complete Main
  45. Default : Yes
  46. Forced : No

  47. Text #1
  48. ID : 3
  49. Format : UTF-8
  50. Codec ID : S_TEXT/UTF8
  51. Codec ID/Info : UTF-8 Plain Text
  52. Duration : 1 h 46 min
  53. Bit rate : 33 b/s
  54. Count of elements : 821
  55. Stream size : 26.3 KiB (0%)
  56. Language : English
  57. Default : No
  58. Forced : No

  59. Text #2
  60. ID : 4
  61. Format : UTF-8
  62. Codec ID : S_TEXT/UTF8
  63. Codec ID/Info : UTF-8 Plain Text
  64. Duration : 1 h 46 min
  65. Bit rate : 50 b/s
  66. Count of elements : 1338
  67. Stream size : 39.1 KiB (0%)
  68. Title : SDH
  69. Language : English
  70. Default : No
  71. Forced : No

  72. Text #3
  73. ID : 5
  74. Format : UTF-8
  75. Codec ID : S_TEXT/UTF8
  76. Codec ID/Info : UTF-8 Plain Text
  77. Duration : 1 h 47 min
  78. Bit rate : 48 b/s
  79. Count of elements : 734
  80. Stream size : 38.2 KiB (0%)
  81. Language : Arabic
  82. Default : No
  83. Forced : No

  84. Text #4
  85. ID : 6
  86. Format : UTF-8
  87. Codec ID : S_TEXT/UTF8
  88. Codec ID/Info : UTF-8 Plain Text
  89. Duration : 1 h 47 min
  90. Bit rate : 25 b/s
  91. Count of elements : 733
  92. Stream size : 19.9 KiB (0%)
  93. Language : Czech
  94. Default : No
  95. Forced : No

  96. Text #5
  97. ID : 7
  98. Format : UTF-8
  99. Codec ID : S_TEXT/UTF8
  100. Codec ID/Info : UTF-8 Plain Text
  101. Duration : 1 h 47 min
  102. Bit rate : 26 b/s
  103. Count of elements : 708
  104. Stream size : 20.9 KiB (0%)
  105. Language : Danish
  106. Default : No
  107. Forced : No

  108. Text #6
  109. ID : 8
  110. Format : UTF-8
  111. Codec ID : S_TEXT/UTF8
  112. Codec ID/Info : UTF-8 Plain Text
  113. Duration : 1 h 47 min
  114. Bit rate : 26 b/s
  115. Count of elements : 731
  116. Stream size : 20.7 KiB (0%)
  117. Language : German
  118. Default : No
  119. Forced : No

  120. Text #7
  121. ID : 9
  122. Format : UTF-8
  123. Codec ID : S_TEXT/UTF8
  124. Codec ID/Info : UTF-8 Plain Text
  125. Duration : 1 h 47 min
  126. Bit rate : 45 b/s
  127. Count of elements : 808
  128. Stream size : 36.0 KiB (0%)
  129. Language : Greek
  130. Default : No
  131. Forced : No

  132. Text #8
  133. ID : 10
  134. Format : UTF-8
  135. Codec ID : S_TEXT/UTF8
  136. Codec ID/Info : UTF-8 Plain Text
  137. Duration : 1 h 47 min
  138. Bit rate : 27 b/s
  139. Count of elements : 738
  140. Stream size : 21.6 KiB (0%)
  141. Title : Spanish
  142. Language : Spanish
  143. Default : No
  144. Forced : No

  145. Text #9
  146. ID : 11
  147. Format : UTF-8
  148. Codec ID : S_TEXT/UTF8
  149. Codec ID/Info : UTF-8 Plain Text
  150. Duration : 1 h 47 min
  151. Bit rate : 26 b/s
  152. Count of elements : 727
  153. Stream size : 21.1 KiB (0%)
  154. Title : European
  155. Language : Spanish
  156. Default : No
  157. Forced : No

  158. Text #10
  159. ID : 12
  160. Format : UTF-8
  161. Codec ID : S_TEXT/UTF8
  162. Codec ID/Info : UTF-8 Plain Text
  163. Duration : 1 h 47 min
  164. Bit rate : 24 b/s
  165. Count of elements : 703
  166. Stream size : 19.7 KiB (0%)
  167. Language : Finnish
  168. Default : No
  169. Forced : No

  170. Text #11
  171. ID : 13
  172. Format : UTF-8
  173. Codec ID : S_TEXT/UTF8
  174. Codec ID/Info : UTF-8 Plain Text
  175. Duration : 1 h 47 min
  176. Bit rate : 28 b/s
  177. Count of elements : 725
  178. Stream size : 22.1 KiB (0%)
  179. Language : French
  180. Default : No
  181. Forced : No

  182. Text #12
  183. ID : 14
  184. Format : UTF-8
  185. Codec ID : S_TEXT/UTF8
  186. Codec ID/Info : UTF-8 Plain Text
  187. Duration : 1 h 47 min
  188. Bit rate : 43 b/s
  189. Count of elements : 734
  190. Stream size : 34.5 KiB (0%)
  191. Language : Hebrew
  192. Default : No
  193. Forced : No

  194. Text #13
  195. ID : 15
  196. Format : UTF-8
  197. Codec ID : S_TEXT/UTF8
  198. Codec ID/Info : UTF-8 Plain Text
  199. Duration : 1 h 47 min
  200. Bit rate : 25 b/s
  201. Count of elements : 724
  202. Stream size : 20.0 KiB (0%)
  203. Language : Croatian
  204. Default : No
  205. Forced : No

  206. Text #14
  207. ID : 16
  208. Format : UTF-8
  209. Codec ID : S_TEXT/UTF8
  210. Codec ID/Info : UTF-8 Plain Text
  211. Duration : 1 h 47 min
  212. Bit rate : 26 b/s
  213. Count of elements : 723
  214. Stream size : 20.9 KiB (0%)
  215. Language : Hungarian
  216. Default : No
  217. Forced : No

  218. Text #15
  219. ID : 17
  220. Format : UTF-8
  221. Codec ID : S_TEXT/UTF8
  222. Codec ID/Info : UTF-8 Plain Text
  223. Duration : 1 h 47 min
  224. Bit rate : 27 b/s
  225. Count of elements : 733
  226. Stream size : 21.7 KiB (0%)
  227. Language : Indonesian
  228. Default : No
  229. Forced : No

  230. Text #16
  231. ID : 18
  232. Format : UTF-8
  233. Codec ID : S_TEXT/UTF8
  234. Codec ID/Info : UTF-8 Plain Text
  235. Duration : 1 h 47 min
  236. Bit rate : 26 b/s
  237. Count of elements : 751
  238. Stream size : 21.2 KiB (0%)
  239. Language : Italian
  240. Default : No
  241. Forced : No

  242. Text #17
  243. ID : 19
  244. Format : UTF-8
  245. Codec ID : S_TEXT/UTF8
  246. Codec ID/Info : UTF-8 Plain Text
  247. Duration : 1 h 47 min
  248. Bit rate : 26 b/s
  249. Count of elements : 818
  250. Stream size : 21.2 KiB (0%)
  251. Language : Japanese
  252. Default : No
  253. Forced : No

  254. Text #18
  255. ID : 20
  256. Format : UTF-8
  257. Codec ID : S_TEXT/UTF8
  258. Codec ID/Info : UTF-8 Plain Text
  259. Duration : 1 h 47 min
  260. Bit rate : 36 b/s
  261. Count of elements : 800
  262. Stream size : 28.8 KiB (0%)
  263. Language : Korean
  264. Default : No
  265. Forced : No

  266. Text #19
  267. ID : 21
  268. Format : UTF-8
  269. Codec ID : S_TEXT/UTF8
  270. Codec ID/Info : UTF-8 Plain Text
  271. Duration : 1 h 47 min
  272. Bit rate : 27 b/s
  273. Count of elements : 731
  274. Stream size : 21.7 KiB (0%)
  275. Language : Malay
  276. Default : No
  277. Forced : No

  278. Text #20
  279. ID : 22
  280. Format : UTF-8
  281. Codec ID : S_TEXT/UTF8
  282. Codec ID/Info : UTF-8 Plain Text
  283. Duration : 1 h 47 min
  284. Bit rate : 26 b/s
  285. Count of elements : 703
  286. Stream size : 21.1 KiB (0%)
  287. Language : Norwegian Bokmal
  288. Default : No
  289. Forced : No

  290. Text #21
  291. ID : 23
  292. Format : UTF-8
  293. Codec ID : S_TEXT/UTF8
  294. Codec ID/Info : UTF-8 Plain Text
  295. Duration : 1 h 47 min
  296. Bit rate : 24 b/s
  297. Count of elements : 631
  298. Stream size : 19.0 KiB (0%)
  299. Language : Dutch
  300. Default : No
  301. Forced : No

  302. Text #22
  303. ID : 24
  304. Format : UTF-8
  305. Codec ID : S_TEXT/UTF8
  306. Codec ID/Info : UTF-8 Plain Text
  307. Duration : 1 h 47 min
  308. Bit rate : 25 b/s
  309. Count of elements : 727
  310. Stream size : 19.9 KiB (0%)
  311. Language : Polish
  312. Default : No
  313. Forced : No

  314. Text #23
  315. ID : 25
  316. Format : UTF-8
  317. Codec ID : S_TEXT/UTF8
  318. Codec ID/Info : UTF-8 Plain Text
  319. Duration : 1 h 47 min
  320. Bit rate : 26 b/s
  321. Count of elements : 730
  322. Stream size : 21.3 KiB (0%)
  323. Title : Portuguese
  324. Language : Portuguese
  325. Default : No
  326. Forced : No

  327. Text #24
  328. ID : 26
  329. Format : UTF-8
  330. Codec ID : S_TEXT/UTF8
  331. Codec ID/Info : UTF-8 Plain Text
  332. Duration : 1 h 47 min
  333. Bit rate : 26 b/s
  334. Count of elements : 728
  335. Stream size : 20.5 KiB (0%)
  336. Title : Brazilian
  337. Language : Portuguese
  338. Default : No
  339. Forced : No

  340. Text #25
  341. ID : 27
  342. Format : UTF-8
  343. Codec ID : S_TEXT/UTF8
  344. Codec ID/Info : UTF-8 Plain Text
  345. Duration : 1 h 47 min
  346. Bit rate : 31 b/s
  347. Count of elements : 730
  348. Stream size : 24.8 KiB (0%)
  349. Language : Romanian
  350. Default : No
  351. Forced : No

  352. Text #26
  353. ID : 28
  354. Format : UTF-8
  355. Codec ID : S_TEXT/UTF8
  356. Codec ID/Info : UTF-8 Plain Text
  357. Duration : 1 h 47 min
  358. Bit rate : 46 b/s
  359. Count of elements : 734
  360. Stream size : 36.6 KiB (0%)
  361. Language : Russian
  362. Default : No
  363. Forced : No

  364. Text #27
  365. ID : 29
  366. Format : UTF-8
  367. Codec ID : S_TEXT/UTF8
  368. Codec ID/Info : UTF-8 Plain Text
  369. Duration : 1 h 47 min
  370. Bit rate : 27 b/s
  371. Count of elements : 691
  372. Stream size : 21.6 KiB (0%)
  373. Language : Swedish
  374. Default : No
  375. Forced : No

  376. Text #28
  377. ID : 30
  378. Format : UTF-8
  379. Codec ID : S_TEXT/UTF8
  380. Codec ID/Info : UTF-8 Plain Text
  381. Duration : 1 h 47 min
  382. Bit rate : 72 b/s
  383. Count of elements : 735
  384. Stream size : 57.3 KiB (0%)
  385. Language : Thai
  386. Default : No
  387. Forced : No

  388. Text #29
  389. ID : 31
  390. Format : UTF-8
  391. Codec ID : S_TEXT/UTF8
  392. Codec ID/Info : UTF-8 Plain Text
  393. Duration : 1 h 47 min
  394. Bit rate : 27 b/s
  395. Count of elements : 733
  396. Stream size : 21.6 KiB (0%)
  397. Language : Turkish
  398. Default : No
  399. Forced : No

  400. Text #30
  401. ID : 32
  402. Format : UTF-8
  403. Codec ID : S_TEXT/UTF8
  404. Codec ID/Info : UTF-8 Plain Text
  405. Duration : 1 h 47 min
  406. Bit rate : 43 b/s
  407. Count of elements : 732
  408. Stream size : 34.6 KiB (0%)
  409. Language : Ukrainian
  410. Default : No
  411. Forced : No

  412. Text #31
  413. ID : 33
  414. Format : UTF-8
  415. Codec ID : S_TEXT/UTF8
  416. Codec ID/Info : UTF-8 Plain Text
  417. Duration : 1 h 47 min
  418. Bit rate : 39 b/s
  419. Count of elements : 744
  420. Stream size : 30.9 KiB (0%)
  421. Language : Vietnamese
  422. Default : No
  423. Forced : No

  424. Text #32
  425. ID : 34
  426. Format : UTF-8
  427. Codec ID : S_TEXT/UTF8
  428. Codec ID/Info : UTF-8 Plain Text
  429. Duration : 1 h 47 min
  430. Bit rate : 28 b/s
  431. Count of elements : 733
  432. Stream size : 22.6 KiB (0%)
  433. Title : Simplified
  434. Language : Chinese
  435. Default : No
  436. Forced : No

  437. Text #33
  438. ID : 35
  439. Format : UTF-8
  440. Codec ID : S_TEXT/UTF8
  441. Codec ID/Info : UTF-8 Plain Text
  442. Duration : 1 h 47 min
  443. Bit rate : 27 b/s
  444. Count of elements : 737
  445. Stream size : 21.8 KiB (0%)
  446. Title : Traditional
  447. Language : Chinese
  448. Default : No
  449. Forced : No
复制代码

凶险假期(港) / 贝克特 / 生而被杀 / 生来被谋杀 / Born to Be Murdered/厄运假期4k Beckett.2021.2160p.NF.WEBRip.x265.10bit.SDR.DDP5.1-4k电影下载
厄运假期4k Beckett.2021.2160p.NF.WEBRip.x265.10bit.SDR.DDP5.1-简繁中字【4K SDR 22.44 GB】
[Hao4k]厄运假期4k Beckett.2021.2160p.NF.WEBRip.x265.10bit.SDR.DDP5.1-KiNGS.torrent (28.67 KB, 售价: 2 个K币)
回复

使用道具 举报

全部回复6

glmis007 发表于 2021-8-19 11:01:47

glmis007 2

2021-8-19 11:01:47

更新挺及时呀,谢谢啦。
回复 支持 反对

使用道具 举报

thp181200 发表于 2021-8-19 11:34:02

thp181200 3

2021-8-19 11:34:02

好电影,谢谢分享,谢谢
回复 支持 反对

使用道具 举报

18520199909 发表于 2021-8-19 15:01:42 Hao4K手机版

18520199909 4

2021-8-19 15:01:42

最喜欢自带字幕的!友情提醒!
回复 支持 反对

使用道具 举报

zsad 发表于 2021-8-19 20:15:37

zsad 5

2021-8-19 20:15:37

有求必应
回复 支持 反对

使用道具 举报

skyboy124602 发表于 2021-8-20 12:35:28

skyboy124602 6

2021-8-20 12:35:28

谢谢楼主,值得收藏!
回复 支持 反对

使用道具 举报

nforce2 发表于 2021-8-27 13:00:25

nforce2 7

2021-8-27 13:00:25

magnet:?xt=urn:btih:a0a04c680f12ff2ef1458949c96efc50a7f14d4e&dn=Beckett.2021.2160p.NF.WEBRip.x265.10bit.SDR.DDP5.1-KiNGSmagnet:?xt=urn:btih:a0a04c680f12ff2ef1458949c96efc50a7f14d4e&dn=Beckett.2021.2160p.NF.WEBRip.x265.10bit.SDR.DDP5.1-KiNGS
回复 支持 反对

使用道具 举报

   发表回复

您需要登录后才可以回帖 登录 | 立即注册

返回列表 本版积分规则

  • 在线客服

  • 返回顶部