微博 微信

Hao4K影音

电视剧频道
电视剧封面:
电视剧名: 未来总统日记 第二季4k
年  代: 2021  
国  家: 美国
类  别: 剧情 喜剧 家庭 
语  言: 英语
字  幕: 英文原版
上映日期: 2021-08-18
文件格式: mkv    
视频效果: 4K(3840x2160)    
资源大小: 33.91 GB
片  长: -
导  演: 吉娜·罗德里格兹
剧情简介: -
女总统日记 / Diary of a Female President/未来总统日记 第二季4k Diary.of.a.Future.President.S02.2160p.DSNP.WEB-DL.x265.10bit.HDR.DDP5.1美剧信息
  1. Video
  2. ID : 1
  3. Format : HEVC
  4. Format/Info : High Efficiency Video Coding
  5. Format profile : Main 10@L5@High
  6. HDR format : SMPTE ST 2086, HDR10 compatible
  7. Codec ID : V_MPEGH/ISO/HEVC
  8. Duration : 31 min 34 s
  9. Bit rate : 16.2 Mb/s
  10. Width : 3 840 pixels
  11. Height : 2 160 pixels
  12. Display aspect ratio : 16:9
  13. Frame rate mode : Constant
  14. Frame rate : 23.976 (24000/1001) FPS
  15. Color space : YUV
  16. Chroma subsampling : 4:2:0
  17. Bit depth : 10 bits
  18. Bits/(Pixel*Frame) : 0.082
  19. Stream size : 3.58 GiB (98%)
  20. Default : Yes
  21. Forced : No
  22. Color range : Limited
  23. Color primaries : BT.2020
  24. Transfer characteristics : PQ
  25. Matrix coefficients : BT.2020 non-constant
  26. Mastering display color primaries : Display P3
  27. Mastering display luminance : min: 0.0001 cd/m2, max: 1000 cd/m2

  28. Audio
  29. ID : 2
  30. Format : E-AC-3
  31. Format/Info : Enhanced AC-3
  32. Commercial name : Dolby Digital Plus
  33. Codec ID : A_EAC3
  34. Duration : 31 min 34 s
  35. Bit rate mode : Constant
  36. Bit rate : 256 kb/s
  37. Channel(s) : 6 channels
  38. Channel layout : L R C LFE Ls Rs
  39. Sampling rate : 48.0 kHz
  40. Frame rate : 31.250 FPS (1536 SPF)
  41. Compression mode : Lossy
  42. Stream size : 57.8 MiB (2%)
  43. Title : English
  44. Language : English
  45. Service kind : Complete Main
  46. Default : Yes
  47. Forced : No

  48. Text #1
  49. ID : 3
  50. Format : UTF-8
  51. Codec ID : S_TEXT/UTF8
  52. Codec ID/Info : UTF-8 Plain Text
  53. Duration : 31 min 22 s
  54. Bit rate : 87 b/s
  55. Count of elements : 586
  56. Stream size : 20.2 KiB (0%)
  57. Title : Chinese Simplified
  58. Language : Chinese
  59. Default : No
  60. Forced : No

  61. Text #2
  62. ID : 4
  63. Format : UTF-8
  64. Codec ID : S_TEXT/UTF8
  65. Codec ID/Info : UTF-8 Plain Text
  66. Duration : 31 min 22 s
  67. Bit rate : 88 b/s
  68. Count of elements : 587
  69. Stream size : 20.3 KiB (0%)
  70. Title : Danish
  71. Language : Danish
  72. Default : No
  73. Forced : No

  74. Text #3
  75. ID : 5
  76. Format : UTF-8
  77. Codec ID : S_TEXT/UTF8
  78. Codec ID/Info : UTF-8 Plain Text
  79. Duration : 31 min 22 s
  80. Bit rate : 74 b/s
  81. Count of elements : 419
  82. Stream size : 17.2 KiB (0%)
  83. Title : Dutch
  84. Language : Dutch
  85. Default : No
  86. Forced : No

  87. Text #4
  88. ID : 6
  89. Format : UTF-8
  90. Codec ID : S_TEXT/UTF8
  91. Codec ID/Info : UTF-8 Plain Text
  92. Duration : 30 min 52 s
  93. Bit rate : 95 b/s
  94. Count of elements : 606
  95. Stream size : 21.5 KiB (0%)
  96. Title : English SDH
  97. Language : English
  98. Default : No
  99. Forced : No

  100. Text #5
  101. ID : 7
  102. Format : UTF-8
  103. Codec ID : S_TEXT/UTF8
  104. Codec ID/Info : UTF-8 Plain Text
  105. Duration : 30 min 52 s
  106. Bit rate : 91 b/s
  107. Count of elements : 575
  108. Stream size : 20.6 KiB (0%)
  109. Title : English
  110. Language : English
  111. Default : No
  112. Forced : No

  113. Text #6
  114. ID : 8
  115. Format : UTF-8
  116. Codec ID : S_TEXT/UTF8
  117. Codec ID/Info : UTF-8 Plain Text
  118. Duration : 31 min 22 s
  119. Bit rate : 72 b/s
  120. Count of elements : 553
  121. Stream size : 16.7 KiB (0%)
  122. Title : Finnish
  123. Language : Finnish
  124. Default : No
  125. Forced : No

  126. Text #7
  127. ID : 9
  128. Format : UTF-8
  129. Codec ID : S_TEXT/UTF8
  130. Codec ID/Info : UTF-8 Plain Text
  131. Duration : 31 min 22 s
  132. Bit rate : 84 b/s
  133. Count of elements : 584
  134. Stream size : 19.5 KiB (0%)
  135. Title : French
  136. Language : French
  137. Default : No
  138. Forced : No

  139. Text #8
  140. ID : 10
  141. Format : UTF-8
  142. Codec ID : S_TEXT/UTF8
  143. Codec ID/Info : UTF-8 Plain Text
  144. Duration : 31 min 22 s
  145. Bit rate : 80 b/s
  146. Count of elements : 564
  147. Stream size : 18.4 KiB (0%)
  148. Title : German
  149. Language : German
  150. Default : No
  151. Forced : No

  152. Text #9
  153. ID : 11
  154. Format : UTF-8
  155. Codec ID : S_TEXT/UTF8
  156. Codec ID/Info : UTF-8 Plain Text
  157. Duration : 31 min 22 s
  158. Bit rate : 82 b/s
  159. Count of elements : 585
  160. Stream size : 19.0 KiB (0%)
  161. Title : Italian
  162. Language : Italian
  163. Default : No
  164. Forced : No

  165. Text #10
  166. ID : 12
  167. Format : UTF-8
  168. Codec ID : S_TEXT/UTF8
  169. Codec ID/Info : UTF-8 Plain Text
  170. Duration : 31 min 22 s
  171. Bit rate : 70 b/s
  172. Count of elements : 530
  173. Stream size : 16.2 KiB (0%)
  174. Title : Japanese
  175. Language : Japanese
  176. Default : No
  177. Forced : No

  178. Text #11
  179. ID : 13
  180. Format : UTF-8
  181. Codec ID : S_TEXT/UTF8
  182. Codec ID/Info : UTF-8 Plain Text
  183. Duration : 31 min 22 s
  184. Bit rate : 105 b/s
  185. Count of elements : 587
  186. Stream size : 24.2 KiB (0%)
  187. Title : Korean
  188. Language : Korean
  189. Default : No
  190. Forced : No

  191. Text #12
  192. ID : 14
  193. Format : UTF-8
  194. Codec ID : S_TEXT/UTF8
  195. Codec ID/Info : UTF-8 Plain Text
  196. Duration : 30 min 52 s
  197. Bit rate : 85 b/s
  198. Count of elements : 461
  199. Stream size : 19.3 KiB (0%)
  200. Title : Norwegian
  201. Language : Norwegian
  202. Default : No
  203. Forced : No

  204. Text #13
  205. ID : 15
  206. Format : UTF-8
  207. Codec ID : S_TEXT/UTF8
  208. Codec ID/Info : UTF-8 Plain Text
  209. Duration : 31 min 22 s
  210. Bit rate : 72 b/s
  211. Count of elements : 558
  212. Stream size : 16.7 KiB (0%)
  213. Title : Polish
  214. Language : Polish
  215. Default : No
  216. Forced : No

  217. Text #14
  218. ID : 16
  219. Format : UTF-8
  220. Codec ID : S_TEXT/UTF8
  221. Codec ID/Info : UTF-8 Plain Text
  222. Duration : 31 min 22 s
  223. Bit rate : 87 b/s
  224. Count of elements : 575
  225. Stream size : 20.2 KiB (0%)
  226. Title : Portuguese
  227. Language : Portuguese
  228. Default : No
  229. Forced : No

  230. Text #15
  231. ID : 17
  232. Format : UTF-8
  233. Codec ID : S_TEXT/UTF8
  234. Codec ID/Info : UTF-8 Plain Text
  235. Duration : 31 min 22 s
  236. Bit rate : 79 b/s
  237. Count of elements : 587
  238. Stream size : 18.2 KiB (0%)
  239. Title : Brazilian Portuguese
  240. Language : Portuguese
  241. Default : No
  242. Forced : No

  243. Text #16
  244. ID : 18
  245. Format : UTF-8
  246. Codec ID : S_TEXT/UTF8
  247. Codec ID/Info : UTF-8 Plain Text
  248. Duration : 31 min 22 s
  249. Bit rate : 78 b/s
  250. Count of elements : 571
  251. Stream size : 18.0 KiB (0%)
  252. Title : European Spanish
  253. Language : Spanish
  254. Default : No
  255. Forced : No

  256. Text #17
  257. ID : 19
  258. Format : UTF-8
  259. Codec ID : S_TEXT/UTF8
  260. Codec ID/Info : UTF-8 Plain Text
  261. Duration : 31 min 22 s
  262. Bit rate : 81 b/s
  263. Count of elements : 513
  264. Stream size : 18.8 KiB (0%)
  265. Title : Spanish
  266. Language : Spanish
  267. Default : No
  268. Forced : No

  269. Text #18
  270. ID : 20
  271. Format : UTF-8
  272. Codec ID : S_TEXT/UTF8
  273. Codec ID/Info : UTF-8 Plain Text
  274. Duration : 31 min 22 s
  275. Bit rate : 84 b/s
  276. Count of elements : 574
  277. Stream size : 19.4 KiB (0%)
  278. Title : Swedish
  279. Language : Swedish
  280. Default : No
  281. Forced : No

  282. Text #19
  283. ID : 21
  284. Format : UTF-8
  285. Codec ID : S_TEXT/UTF8
  286. Codec ID/Info : UTF-8 Plain Text
  287. Duration : 31 min 22 s
  288. Bit rate : 82 b/s
  289. Count of elements : 587
  290. Stream size : 19.0 KiB (0%)
  291. Title : Mandarin (Guoyu)
  292. Language : Chinese
  293. Default : No
  294. Forced : No
复制代码

女总统日记 / Diary of a Female President/未来总统日记 第二季4k Diary.of.a.Future.President.S02.2160p.DSNP.WEB-DL.x265.10bit.HDR.DDP5.1美剧下载
未来总统日记 第二季4k Diary.of.a.Future.President.S02.2160p.DSNP.WEB-DL.x265.10bit.HDR.DDP5.1【33.91 GB】
[Hao4k]未来总统日记 第二季4k Diary.of.a.Future.President.S02.2160p.DSNP.WEB-DL.x.torrent (43.93 KB)
回复

使用道具 举报

   发表回复

您需要登录后才可以回帖 登录 | 立即注册

返回列表 本版积分规则

  • 在线客服

  • 返回顶部