微博 微信

Hao4K影音

电影频道
电影封面:
片  名: 绿衣骑士4K
电影分类: 恐怖 剧情 奇幻 
国  家: 美国 英国 
年  代: 2021年
分 辨 率: 4K(3840x2160)
电影格式: MKV|REMUX 
画质标准: HDR SDR 
音质编码: Dolby Digital Plus Audio 
电影声道: 5.1声道 
帧数/FPS: 23.976 帧
电影语言: 英文原版 
资源大小: 13.50 GB
导  演: 大卫·洛维
豆瓣评分: 7.3 分
中文字幕: -
剧情简介: 影片根据故事《高文爵士与绿衣骑士》改编,讲述亚瑟王在自己的宫廷里举行宴会。一位绿衣骑士前来向圆桌骑士挑战:有谁敢当场砍下他的头,并让他一年后回敬一斧。高文接受挑战,砍下了绿衣骑士的头。那具依然活着的躯体捡起头颅,回到绿色的教堂。一年以后,高文践约去寻找绿衣骑士。
绿骑士(台)/绿衣骑士4K.The.Green.Knight.2021.2160p.WEB-DL.x265.10bit.HDR.DDP5.1.Atmos-4k电影信息
  1. Video
  2. ID : 1
  3. Format : HEVC
  4. Format/Info : High Efficiency Video Coding
  5. Format profile : Main 10@L5@High
  6. HDR format : SMPTE ST 2086, HDR10 compatible
  7. Codec ID : V_MPEGH/ISO/HEVC
  8. Duration : 2 h 9 min
  9. Bit rate : 14.1 Mb/s
  10. Width : 3 836 pixels
  11. Height : 2 072 pixels
  12. Display aspect ratio : 1.85:1
  13. Frame rate mode : Constant
  14. Frame rate : 23.976 FPS
  15. Color space : YUV
  16. Chroma subsampling : 4:2:0 (Type 2)
  17. Bit depth : 10 bits
  18. Bits/(Pixel*Frame) : 0.074
  19. Stream size : 12.8 GiB (95%)
  20. Default : Yes
  21. Forced : No
  22. Color range : Limited
  23. Color primaries : BT.2020
  24. Transfer characteristics : PQ
  25. Matrix coefficients : BT.2020 non-constant
  26. Mastering display color primaries : BT.2020
  27. Mastering display luminance : min: 0.0050 cd/m2, max: 1000 cd/m2
  28. Maximum Content Light Level : 2694 cd/m2
  29. Maximum Frame-Average Light Level : 582 cd/m2

  30. Audio
  31. ID : 2
  32. Format : E-AC-3 JOC
  33. Format/Info : Enhanced AC-3 with Joint Object Coding
  34. Commercial name : Dolby Digital Plus with Dolby Atmos
  35. Codec ID : A_EAC3
  36. Duration : 2 h 9 min
  37. Bit rate mode : Constant
  38. Bit rate : 768 kb/s
  39. Channel(s) : 6 channels
  40. Channel layout : L R C LFE Ls Rs
  41. Sampling rate : 48.0 kHz
  42. Frame rate : 31.250 FPS (1536 SPF)
  43. Compression mode : Lossy
  44. Stream size : 713 MiB (5%)
  45. Title : English
  46. Language : English
  47. Service kind : Complete Main
  48. Default : No
  49. Forced : No
  50. Complexity index : 16
  51. Number of dynamic objects : 15
  52. Bed channel count : 1 channel
  53. Bed channel configuration : LFE

  54. Text #1
  55. ID : 3
  56. Format : UTF-8
  57. Codec ID : S_TEXT/UTF8
  58. Codec ID/Info : UTF-8 Plain Text
  59. Duration : 2 h 5 min
  60. Bit rate : 21 b/s
  61. Count of elements : 829
  62. Stream size : 19.9 KiB (0%)
  63. Language : English
  64. Default : Yes
  65. Forced : No

  66. Text #2
  67. ID : 4
  68. Format : UTF-8
  69. Codec ID : S_TEXT/UTF8
  70. Codec ID/Info : UTF-8 Plain Text
  71. Duration : 2 h 8 min
  72. Bit rate : 31 b/s
  73. Count of elements : 1238
  74. Stream size : 29.6 KiB (0%)
  75. Title : SDH
  76. Language : English
  77. Default : No
  78. Forced : No
复制代码

绿骑士(台)/绿衣骑士4K.The.Green.Knight.2021.2160p.WEB-DL.x265.10bit.HDR.DDP5.1.Atmos-4k电影下载

绿衣骑士4K.The.Green.Knight.2021.2160p.WEB-DL.x265.10bit.HDR.DDP5.1.Atmos-【4K HDR 13.50 GB】
[Hao4K]绿衣骑士4K.The.Green.Knight.2021.2160p.WEB-DL.x265.10bit.HDR.DDP5.1.Atmos.torrent (17.53 KB, 售价: 2 个K币)
回复

使用道具 举报

全部回复36

风的自由 发表于 2021-8-19 18:31:29 Hao4K手机版

风的自由 2

2021-8-19 18:31:29

没字幕好难受

点评

普通字幕+特效字幕 https://www.hao4k.cn/thread-60839-1-1.html  发表于 2021-8-20 10:55
回复 支持 1 反对 0

使用道具 举报

raymondhwm 发表于 2021-8-19 19:37:10

raymondhwm 3

2021-8-19 19:37:10

没字幕
感谢楼主

点评

普通字幕+特效字幕 https://www.hao4k.cn/thread-60839-1-1.html  发表于 2021-8-20 10:55
回复 支持 反对

使用道具 举报

wx200135 发表于 2021-8-19 20:02:14

wx200135 4

2021-8-19 20:02:14

感谢楼主 坐等字幕

点评

普通字幕+特效字幕 https://www.hao4k.cn/thread-60839-1-1.html  发表于 2021-8-20 10:55
回复 支持 反对

使用道具 举报

zsad 发表于 2021-8-19 20:14:43

zsad 5

2021-8-19 20:14:43

有求必应
回复 支持 反对

使用道具 举报

XIUHUONE 发表于 2021-8-19 22:27:13

XIUHUONE 6

2021-8-19 22:27:13


看看别的地方有没有
回复 支持 反对

使用道具 举报

shanhongyi 发表于 2021-8-19 22:44:50 Hao4K手机版

shanhongyi 7

2021-8-19 22:44:50

多谢分享
回复 支持 反对

使用道具 举报

bxbybz 发表于 2021-8-20 05:31:54

bxbybz 8

2021-8-20 05:31:54

7.3分?应该可以看看,下载
回复 支持 反对

使用道具 举报

uni7f 发表于 2021-8-20 10:55:09

uni7f 9

2021-8-20 10:55:09

回复 支持 反对

使用道具 举报

liyun80000 发表于 2021-8-20 12:03:32

liyun80000 10

2021-8-20 12:03:32

谢谢楼主好人
回复 支持 反对

使用道具 举报

skyboy124602 发表于 2021-8-20 12:35:00

skyboy124602 11

2021-8-20 12:35:00

看着不错,谢谢楼主,下来看看
回复 支持 反对

使用道具 举报

23214121 发表于 2021-8-20 16:06:42

23214121 12

2021-8-20 16:06:42

谢谢楼主
回复 支持 反对

使用道具 举报

starzkiop 发表于 2021-8-20 21:52:27

starzkiop 13

2021-8-20 21:52:27

  看着不错,谢谢楼主
回复 支持 反对

使用道具 举报

punksh369 发表于 2021-8-20 22:10:13

punksh369 14

2021-8-20 22:10:13

感谢楼主 坐等字幕
回复 支持 反对

使用道具 举报

qddwbwz 发表于 2021-8-20 22:14:41

qddwbwz 15

2021-8-20 22:14:41

第一次看这种不知道怎么弄啊,好像挺复杂
回复 支持 反对

使用道具 举报

7phone 发表于 2021-8-21 12:54:13

7phone 16

2021-8-21 12:54:13

谢谢分享,看看片子怎么样
回复 支持 反对

使用道具 举报

pup 发表于 2021-8-21 21:32:18

pup 17

2021-8-21 21:32:18

谢谢楼主,辛苦了
回复 支持 反对

使用道具 举报

eossin 发表于 2021-8-22 12:15:07

eossin 18

2021-8-22 12:15:07

支持楼主
回复 支持 反对

使用道具 举报

   发表回复

您需要登录后才可以回帖 登录 | 立即注册

返回列表 本版积分规则

  • 在线客服

  • 返回顶部