微博 微信

Hao4K影音

电影频道
电影封面:
片  名: 静水城4K
电影分类: 犯罪 惊悚 剧情 
国  家: 美国 
年  代: 2021年
分 辨 率: 4K(3840x2160)
电影格式: MKV|REMUX 
画质标准: HDR10 
音质编码: Dolby Digital Plus Audio 
电影声道: 5.1声道 
帧数/FPS: 23.976 帧
电影语言: 英文原版 
资源大小: 15.04 GB
导  演: 汤姆·麦卡锡
豆瓣评分: 7.3 分
中文字幕: -
剧情简介: 影片围绕一个来自俄克拉荷马州的美国石油钻井平台钻工比尔(达蒙饰)展开。他不得不前往马赛,拜访他久未谋面却锒铛入狱的女儿(布雷斯林饰),他的女儿坚称并没有犯下谋杀罪。面对语言的障碍、文化的差异,以及复杂的法律制度,比尔决意孤注一掷拯救他的女儿。而在这个过程中,他与一位当地的女性和她的小女儿建立了友谊,也开始了个人的探索之旅,并获得了更大的归属感。
静水 / 斯蒂尔沃特 / 止水/静水城4K.Stillwater.2021.2160p.AMZN.WEB-DL.x265.10bit.HDR10Plus.DDP5.1.Atmos-4k电影信息
  1. Video
  2. ID : 1
  3. Format : HEVC
  4. Format/Info : High Efficiency Video Coding
  5. Format profile : Main 10@L5@Main
  6. HDR format : SMPTE ST 2094 App 4, Version 1, HDR10+ Profile B compatible
  7. Codec ID : V_MPEGH/ISO/HEVC
  8. Duration : 2 h 19 min
  9. Bit rate : 14.8 Mb/s
  10. Width : 3 840 pixels
  11. Height : 2 080 pixels
  12. Display aspect ratio : 1.85:1
  13. Frame rate mode : Constant
  14. Frame rate : 23.976 (24000/1001) FPS
  15. Color space : YUV
  16. Chroma subsampling : 4:2:0
  17. Bit depth : 10 bits
  18. Bits/(Pixel*Frame) : 0.077
  19. Stream size : 14.4 GiB (96%)
  20. Default : Yes
  21. Forced : No
  22. Color range : Limited
  23. Color primaries : BT.2020
  24. Transfer characteristics : PQ
  25. Matrix coefficients : BT.2020 non-constant
  26. Mastering display color primaries : Display P3
  27. Mastering display luminance : min: 0.0050 cd/m2, max: 1000 cd/m2
  28. Maximum Content Light Level : 987 cd/m2
  29. Maximum Frame-Average Light Level : 137 cd/m2

  30. Audio
  31. ID : 2
  32. Format : E-AC-3
  33. Format/Info : Enhanced AC-3
  34. Commercial name : Dolby Digital Plus
  35. Codec ID : A_EAC3
  36. Duration : 2 h 19 min
  37. Bit rate mode : Constant
  38. Bit rate : 640 kb/s
  39. Channel(s) : 6 channels
  40. Channel layout : L R C LFE Ls Rs
  41. Sampling rate : 48.0 kHz
  42. Frame rate : 31.250 FPS (1536 SPF)
  43. Compression mode : Lossy
  44. Stream size : 638 MiB (4%)
  45. Title : English
  46. Language : English
  47. Service kind : Complete Main
  48. Default : No
  49. Forced : No

  50. Text #1
  51. ID : 3
  52. Format : UTF-8
  53. Codec ID : S_TEXT/UTF8
  54. Codec ID/Info : UTF-8 Plain Text
  55. Duration : 2 h 18 min
  56. Bit rate : 49 b/s
  57. Count of elements : 2089
  58. Stream size : 49.8 KiB (0%)
  59. Title : English [SDH]
  60. Language : English
  61. Default : No
  62. Forced : No

  63. Text #2
  64. ID : 4
  65. Format : UTF-8
  66. Codec ID : S_TEXT/UTF8
  67. Codec ID/Info : UTF-8 Plain Text
  68. Duration : 2 h 11 min
  69. Bit rate : 43 b/s
  70. Count of elements : 1739
  71. Stream size : 42.2 KiB (0%)
  72. Title : English
  73. Language : English
  74. Default : No
  75. Forced : No
复制代码

静水 / 斯蒂尔沃特 / 止水/静水城4K.Stillwater.2021.2160p.AMZN.WEB-DL.x265.10bit.HDR10Plus.DDP5.1.Atmos-4k电影下载

静水城4K.Stillwater.2021.2160p.AMZN.WEB-DL.x265.10bit.HDR10Plus.DDP5.1.Atmos【4K HDR 15.04 GB】
[Hao4K]静水城4K.Stillwater.2021.2160p.AMZN.WEB-DL.x265.10bit.HDR10Plus.DDP5.1.At.torrent (19.45 KB, 售价: 2 个K币)

免费评分

参与人数 1活跃 +1 H币 +1 收起 理由
DADA2005 + 1 + 1 感谢感谢感谢

查看全部评分

回复

使用道具 举报

全部回复40

风的自由 发表于 2021-8-19 18:32:08 Hao4K手机版

风的自由 2

2021-8-19 18:32:08

没字幕好难受
回复 支持 1 反对 0

使用道具 举报

zsad 发表于 2021-8-19 20:14:03

zsad 3

2021-8-19 20:14:03

有求必应
回复 支持 反对

使用道具 举报

tushery 发表于 2021-8-19 21:11:31

tushery 4

2021-8-19 21:11:31

谢谢分享优质电影
回复 支持 反对

使用道具 举报

money17 发表于 2021-8-19 22:32:23

money17 5

2021-8-19 22:32:23

親,謝謝分享,但有沒有字幕呢?
回复 支持 反对

使用道具 举报

venusbin 发表于 2021-8-19 23:19:08

venusbin 6

2021-8-19 23:19:08

达蒙的电影 值得一看 应该不错
回复 支持 反对

使用道具 举报

bbgrnnji 发表于 2021-8-20 08:31:48

bbgrnnji 7

2021-8-20 08:31:48

达蒙的新片
回复 支持 反对

使用道具 举报

antsbaby 发表于 2021-8-20 08:49:08

antsbaby 8

2021-8-20 08:49:08

求字幕
回复 支持 反对

使用道具 举报

15642709955 发表于 2021-8-20 08:52:40

15642709955 9

2021-8-20 08:52:40

马特达蒙主演!
回复 支持 反对

使用道具 举报

a19931126 发表于 2021-8-20 10:18:49

a19931126 10

2021-8-20 10:18:49

很好的影片,谢谢分享!
回复 支持 反对

使用道具 举报

895090595 发表于 2021-8-20 11:08:01

895090595 11

2021-8-20 11:08:01


+1 难受香菇
回复 支持 反对

使用道具 举报

ajian.lu 发表于 2021-8-20 11:11:57

ajian.lu 12

2021-8-20 11:11:57

感谢楼主精彩分享
回复 支持 反对

使用道具 举报

moran 发表于 2021-8-20 14:27:03

moran 13

2021-8-20 14:27:03

有机翻的字幕了。下载https://subhd.tv/a/522289
回复 支持 反对

使用道具 举报

cdsdyd 发表于 2021-8-20 17:20:15

cdsdyd 14

2021-8-20 17:20:15

不仔细看还以为是小李
回复 支持 反对

使用道具 举报

SjackS 发表于 2021-8-20 20:19:12

SjackS 15

2021-8-20 20:19:12

全网找不着字幕
回复 支持 反对

使用道具 举报

爷们 发表于 2021-8-20 23:09:44

爷们 16

2021-8-20 23:09:44


那不是种子文件和链接都有嘛!
回复 支持 反对

使用道具 举报

edward880111 发表于 2021-8-21 09:09:15

edward880111 17

2021-8-21 09:09:15

这速度,也是没谁了!封面看起来确实像小李
回复 支持 反对

使用道具 举报

dzstone123 发表于 2021-8-21 10:30:34

dzstone123 18

2021-8-21 10:30:34

谢谢分享,下来看看
回复 支持 反对

使用道具 举报

   发表回复

您需要登录后才可以回帖 登录 | 立即注册

返回列表 本版积分规则

  • 在线客服

  • 返回顶部