微博 微信

Hao4K影音

电影频道
电影封面:
片  名: 汪汪队立大功大电影4k
电影分类: 冒险 喜剧 动画 其他 
国  家: 美国 加拿大 
年  代: 2021年
分 辨 率: 4K(3840x2160)
电影格式: MKV|REMUX 
画质标准: HDR10 
音质编码: Dolby Digital Plus Audio 
电影声道: 5.1声道 
帧数/FPS: 23.976 帧
电影语言: 英文原版 
资源大小: 8.80 GB
导  演: 卡尔·布伦克尔
豆瓣评分: 6.5 分
中文字幕: -
剧情简介:  汪汪队出发救援!邪恶的韩丁那成为了冒险湾的市长,并且准备对这座城市进行大肆破坏。小男孩莱德和他英勇的汪汪队小狗们必须打起十二分精神,准备迎接全新的挑战。与此同时,小狗阿奇不得不面对他在冒险湾复杂的过去。好在这时团队迎来了新的盟友,聪明的腊肠犬贝贝。带着升级的武器和装备,汪汪队已经准备好随时为拯救冒险湾的居民们而战!
狗狗巡逻队 / 汪汪队立大功电影版(台)/汪汪队立大功大4k PAW.Patrol.The.Movie.2021.2160p.WEB-DL.x265.10bit.HDR10Plus.DDP5.1-4k电影信息
  1. Video
  2. ID : 1
  3. Format : HEVC
  4. Format/Info : High Efficiency Video Coding
  5. Format profile : Main 10@L5@High
  6. HDR format : SMPTE ST 2094 App 4, Version 1, HDR10+ Profile B compatible
  7. Codec ID : V_MPEGH/ISO/HEVC
  8. Duration : 1 h 26 min
  9. Bit rate : 14.3 Mb/s
  10. Width : 3 840 pixels
  11. Height : 2 160 pixels
  12. Display aspect ratio : 16:9
  13. Frame rate mode : Constant
  14. Frame rate : 23.976 (24000/1001) FPS
  15. Color space : YUV
  16. Chroma subsampling : 4:2:0 (Type 2)
  17. Bit depth : 10 bits
  18. Bits/(Pixel*Frame) : 0.072
  19. Stream size : 8.56 GiB (97%)
  20. Language : English
  21. Default : Yes
  22. Forced : No
  23. Color range : Full
  24. Color primaries : BT.2020
  25. Transfer characteristics : PQ
  26. Matrix coefficients : BT.2020 non-constant
  27. Mastering display color primaries : Display P3
  28. Mastering display luminance : min: 0.0001 cd/m2, max: 1000 cd/m2
  29. Maximum Content Light Level : 96 cd/m2
  30. Maximum Frame-Average Light Level : 15 cd/m2

  31. Audio
  32. ID : 2
  33. Format : AC-3
  34. Format/Info : Audio Coding 3
  35. Commercial name : Dolby Digital
  36. Codec ID : A_AC3
  37. Duration : 1 h 26 min
  38. Bit rate mode : Constant
  39. Bit rate : 384 kb/s
  40. Channel(s) : 6 channels
  41. Channel layout : L R C LFE Ls Rs
  42. Sampling rate : 48.0 kHz
  43. Frame rate : 31.250 FPS (1536 SPF)
  44. Compression mode : Lossy
  45. Stream size : 236 MiB (3%)
  46. Language : English
  47. Service kind : Complete Main
  48. Default : Yes
  49. Forced : No

  50. Text
  51. ID : 3
  52. Format : UTF-8
  53. Codec ID : S_TEXT/UTF8
  54. Codec ID/Info : UTF-8 Plain Text
  55. Duration : 1 h 21 min
  56. Bit rate : 72 b/s
  57. Count of elements : 1605
  58. Stream size : 43.4 KiB (0%)
  59. Language : English
  60. Default : No
  61. Forced : No
复制代码

狗狗巡逻队 / 汪汪队立大功电影版(台)/汪汪队立大功大4k PAW.Patrol.The.Movie.2021.2160p.WEB-DL.x265.10bit.HDR10Plus.DDP5.1-4k电影下载

汪汪队立大功大4k PAW.Patrol.The.Movie.2021.2160p.WEB-DL.x265.10bit.HDR10Plus.DDP5.1【4K HDR 8.80 GB】
[Hao4k]汪汪队立大功大电影4k PAW.Patrol.The.Movie.2021.2160p.WEB-DL.x265.10bit.HD.torrent (22.63 KB, 售价: 2 个K币)
回复

使用道具 举报

全部回复60

renq0123 发表于 2021-8-20 14:09:49

renq0123 2

2021-8-20 14:09:49

谢谢分享!~

免费评分

参与人数 1K币 -10 违规值 +1 收起 理由
花落无声 -10 + 1 违反论坛规则:多个主题回复相同内容(第五章第1条)

查看全部评分

回复 支持 反对

使用道具 举报

王茂 发表于 2021-8-20 15:39:14

王茂 3

2021-8-20 15:39:14

不知道有没有国语配音的音轨,如果没音轨那小朋友没法看的。
回复 支持 6 反对 0

使用道具 举报

shcnbzjz 发表于 2021-8-20 16:05:09

shcnbzjz 4

2021-8-20 16:05:09

小朋友的最爱
回复 支持 反对

使用道具 举报

fengcaiyuntian 发表于 2021-8-20 17:22:59

fengcaiyuntian 5

2021-8-20 17:22:59

是英语的啊????
回复 支持 反对

使用道具 举报

luckhawk 发表于 2021-8-20 20:16:26

luckhawk 6

2021-8-20 20:16:26

写了英语啊,么有国语音轨
回复 支持 反对

使用道具 举报

cai909090 发表于 2021-8-20 20:29:57

cai909090 7

2021-8-20 20:29:57

我家宝宝最喜欢的汪汪队,充值了儿童会员看
回复 支持 反对

使用道具 举报

nervbd 发表于 2021-8-20 20:31:55

nervbd 8

2021-8-20 20:31:55

没有中文好可惜
回复 支持 反对

使用道具 举报

172418287 发表于 2021-8-20 21:00:00

172418287 9

2021-8-20 21:00:00

确实没有国语配音的话,小孩子看,只能画面,听不懂在说什么,大佬们弄个国语音轨吧
回复 支持 反对

使用道具 举报

chenyang10672 发表于 2021-8-20 22:09:57

chenyang10672 10

2021-8-20 22:09:57

坐等台语配音,我家宝宝的最爱!!
回复 支持 反对

使用道具 举报

大大的微笑 发表于 2021-8-21 00:00:27

大大的微笑 11

2021-8-21 00:00:27

给力 不过 国配更好
回复 支持 反对

使用道具 举报

firstt 发表于 2021-8-21 09:34:08

firstt 12

2021-8-21 09:34:08

小孩子听不懂英文哦
回复 支持 反对

使用道具 举报

dzstone123 发表于 2021-8-21 10:29:29

dzstone123 13

2021-8-21 10:29:29

小孩喜欢,谢谢分享
回复 支持 反对

使用道具 举报

carlchina 发表于 2021-8-21 12:23:00

carlchina 14

2021-8-21 12:23:00

等有国语配音了再来下

免费评分

参与人数 1活跃 +1 收起 理由
鸟语花香 + 1 赞一个!

查看全部评分

回复 支持 反对

使用道具 举报

7phone 发表于 2021-8-21 12:48:33

7phone 15

2021-8-21 12:48:33

给孩子看的,谢谢分享
回复 支持 反对

使用道具 举报

Zionks 发表于 2021-8-21 13:27:06

Zionks 16

2021-8-21 13:27:06

谢谢 女儿最爱
回复 支持 反对

使用道具 举报

ggy860 发表于 2021-8-21 16:02:24

ggy860 17

2021-8-21 16:02:24

坐等国语音轨谢谢楼主
回复 支持 反对

使用道具 举报

conbra 发表于 2021-8-21 17:14:02

conbra 18

2021-8-21 17:14:02

谢谢分享,下来给孩子留存。
回复 支持 反对

使用道具 举报

   发表回复

您需要登录后才可以回帖 登录 | 立即注册

返回列表 本版积分规则

  • 在线客服

  • 返回顶部