微博 微信

Hao4K影音

电影频道
电影封面:
片  名: 逃脱的女孩4k
电影分类: 恐怖 惊悚 
国  家: 美国 
年  代: 2021年
分 辨 率: 4K(3840x2160)
电影格式: MKV|REMUX 
画质标准: SDR 
音质编码: Dolby Digital Plus Audio 
电影声道: 5.1声道 
帧数/FPS: 23.976 帧
电影语言: 英文原版 
资源大小: 10.43 GB
导  演: Michael Morrissey
豆瓣评分: 0 分
中文字幕: /thread-60899-1-1.html
剧情简介: Masena, New York, 1998. A decade of terror comes to a close with the capture of, Elizabeth Caulfield, a woman who kidnapped five young girls and pretended they were her own. Only one girl, Christina Bowden, managed to get away with her life from Caulfield, the other four found buried behind Caulfield\'s decrepit home.. - 20 years later Caulfield has escaped from prison and launches a deadly pursuit to finish what she began.
逃脱的女孩4k The.Girl.Who.Got.Away.2021.2160p.WEB-DL.x265.10bit.SDR.DDP5.1.Atmos-4k电影信息
  1. Video
  2. ID : 1
  3. Format : HEVC
  4. Format/Info : High Efficiency Video Coding
  5. Format profile : Main 10@L5@High
  6. Codec ID : V_MPEGH/ISO/HEVC
  7. Duration : 1 h 56 min
  8. Bit rate : 12.1 Mb/s
  9. Width : 3 836 pixels
  10. Height : 1 600 pixels
  11. Display aspect ratio : 2.40:1
  12. Original display aspect ratio : 2.40:1
  13. Frame rate mode : Constant
  14. Frame rate : 23.976 FPS
  15. Color space : YUV
  16. Chroma subsampling : 4:2:0
  17. Bit depth : 10 bits
  18. Bits/(Pixel*Frame) : 0.082
  19. Stream size : 9.80 GiB (94%)
  20. Default : Yes
  21. Forced : No
  22. Color range : Limited
  23. Color primaries : BT.709
  24. Transfer characteristics : BT.709
  25. Matrix coefficients : BT.709

  26. Audio
  27. ID : 2
  28. Format : E-AC-3 JOC
  29. Format/Info : Enhanced AC-3 with Joint Object Coding
  30. Commercial name : Dolby Digital Plus with Dolby Atmos
  31. Codec ID : A_EAC3
  32. Duration : 1 h 56 min
  33. Bit rate mode : Constant
  34. Bit rate : 768 kb/s
  35. Channel(s) : 6 channels
  36. Channel layout : L R C LFE Ls Rs
  37. Sampling rate : 48.0 kHz
  38. Frame rate : 31.250 FPS (1536 SPF)
  39. Compression mode : Lossy
  40. Stream size : 639 MiB (6%)
  41. Title : English
  42. Language : English
  43. Service kind : Complete Main
  44. Default : No
  45. Forced : No
  46. Complexity index : 16
  47. Number of dynamic objects : 15
  48. Bed channel count : 1 channel
  49. Bed channel configuration : LFE

  50. Text
  51. ID : 3
  52. Format : UTF-8
  53. Codec ID : S_TEXT/UTF8
  54. Codec ID/Info : UTF-8 Plain Text
  55. Duration : 1 h 51 min
  56. Bit rate : 42 b/s
  57. Count of elements : 1383
  58. Stream size : 34.7 KiB (0%)
  59. Language : English
  60. Default : Yes
  61. Forced : No
复制代码

逃脱的女孩4k The.Girl.Who.Got.Away.2021.2160p.WEB-DL.x265.10bit.SDR.DDP5.1.Atmos-4k电影下载

逃脱的女孩4k The.Girl.Who.Got.Away.2021.2160p.WEB-DL.x265.10bit.SDR.DDP5.1.Atmos【4K SDR 10.43 GB】
[Hao4k]逃脱的女孩4k_The.Girl.Who.Got.Away.2021.2160p.WEB-DL.x265.10bit.SDR.DDP5..torrent (13.71 KB, 售价: 2 个K币)
回复

使用道具 举报

全部回复11

syqpp 发表于 2021-8-20 14:37:19

syqpp 2

2021-8-20 14:37:19

有字幕?
回复 支持 反对

使用道具 举报

BG6RXJ 发表于 2021-8-20 15:20:51

BG6RXJ 3

2021-8-20 15:20:51

谢谢分享!下载看看
回复 支持 反对

使用道具 举报

arongu 发表于 2021-8-20 23:54:41 Hao4K手机版

arongu 4

2021-8-20 23:54:41

这海报看上去也太像某一季行尸走肉低语者的海报了吧
回复 支持 反对

使用道具 举报

小菜菜鸟 发表于 2021-8-21 07:52:36

小菜菜鸟 5

2021-8-21 07:52:36

有点瘆人这图片。
回复 支持 反对

使用道具 举报

dcgfc8 发表于 2021-8-21 11:58:01

dcgfc8 6

2021-8-21 11:58:01

我要复仇
回复 支持 反对

使用道具 举报

zsad 发表于 2021-8-21 12:33:04

zsad 7

2021-8-21 12:33:04


谢谢分享
回复 支持 反对

使用道具 举报

zx216145 发表于 2021-8-21 15:43:36

zx216145 8

2021-8-21 15:43:36

好看吗?
回复 支持 反对

使用道具 举报

wushenggong1314 发表于 2021-8-23 11:26:11

wushenggong1314 9

2021-8-23 11:26:11

好看吗?
回复 支持 反对

使用道具 举报

世爵39 发表于 2021-8-24 10:58:03

世爵39 10

2021-8-24 10:58:03

封面这么似僵尸片
回复 支持 反对

使用道具 举报

wangfeng1979 发表于 2021-8-24 16:23:02

wangfeng1979 11

2021-8-24 16:23:02

看封面满满的美式恐怖
回复 支持 反对

使用道具 举报

vinsen 发表于 2021-8-26 14:02:50

vinsen 12

2021-8-26 14:02:50

感觉不够恐怖
回复 支持 反对

使用道具 举报

   发表回复

您需要登录后才可以回帖 登录 | 立即注册

返回列表 本版积分规则

  • 在线客服

  • 返回顶部