微博 微信

Hao4K影音

电影频道
电影封面:
片  名: 追忆迷局4k
电影分类: 科幻 剧情 
国  家: 美国 
年  代: 2021年
分 辨 率: 4K(3840x2160)
电影格式: mp4 MKV|REMUX 
画质标准: HDR HDR 10+ Dolby Vision 
音质编码: Dolby-Atmos Dolby Digital Plus Audio 其他AAC 
电影声道: 5.1声道 2.0声道 
帧数/FPS: 23.967 帧
电影语言: 英文原版 
资源大小: 15.09 GB
导  演: 丽莎·乔伊
豆瓣评分:
中文字幕: /thread-60895-1-1.html
剧情简介: 尼克·班尼斯特(休·杰克曼 饰)是一名私家侦探。他的工作主要是帮助客户重拾遗忘的记忆,沉湎于幽暗诱人的逝去时光。尼克生活在因海平面上升而已经半淹没的迈阿密,然而当他接手了新客户梅(丽贝卡·弗格森 饰)之后,他的生活永远改变了。一次简单的寻回失物之任务,演变成一出危机重重的惊天迷局。尼克努力寻找着梅的失踪真相,而与整座城市存亡息息相关的巨型阴谋也逐渐浮现。他必须争分夺秒,破解回忆迷局,但他真的能在阴谋将自己吞噬前,找到梅失踪的真相吗?同时尼克也必须直面一个终极难题:为了留住你最爱的人,你到底愿意付出什么?
追忆 / 回忆 / 追忆人(台) / 回忆潜行(港)/追忆迷局4k.Reminiscence.2021.2160p.HMAX.WEB-DL.DDP5.1.Atmos.DV.MKV.x265 4k电影信息

  1. Video
  2. ID : 1
  3. Format : HEVC
  4. Format/Info : High Efficiency Video Coding
  5. Format profile : Main 10@L5@Main
  6. HDR format : Dolby Vision, Version 1.0, dvhe.05.06, BL+RPU
  7. Codec ID : V_MPEGH/ISO/HEVC
  8. Duration : 1 h 55 min
  9. Bit rate : 17.3 Mb/s
  10. Width : 3 840 pixels
  11. Height : 2 160 pixels
  12. Display aspect ratio : 16:9
  13. Frame rate mode : Constant
  14. Frame rate : 23.976 (24000/1001) FPS
  15. Color space : YUV
  16. Chroma subsampling : 4:2:0
  17. Bit depth : 10 bits
  18. Bits/(Pixel*Frame) : 0.087
  19. Stream size : 14.0 GiB (94%)
  20. Writing library : x265 3.4hy:[Linux][GCC 7.5.0][64 bit] 10bit
  21. Encoding settings : cpuid=1111039 / frame-threads=6 / no-wpp / no-pmode / no-pme / no-psnr / no-ssim / log-level=2 / input-csp=1 / input-res=3840x2160 / interlace=0 / total-frames=0 / level-idc=0 / high-tier=1 / uhd-bd=0 / ref=4 / no-allow-non-conformance / repeat-headers / annexb / aud / hrd / info / hash=0 / no-temporal-layers / no-open-gop / min-keyint=96 / keyint=96 / gop-lookahead=0 / bframes=4 / b-adapt=2 / b-pyramid / bframe-bias=0 / rc-lookahead=25 / lookahead-slices=4 / scenecut=40 / hist-scenecut=0 / radl=0 / no-splice / no-intra-refresh / ctu=64 / min-cu-size=8 / rect / no-amp / max-tu-size=32 / tu-inter-depth=1 / tu-intra-depth=1 / limit-tu=0 / rdoq-level=2 / dynamic-rd=0.00 / no-ssim-rd / signhide / no-tskip / nr-intra=0 / nr-inter=0 / no-constrained-intra / strong-intra-smoothing / max-merge=3 / limit-refs=3 / limit-modes / me=3 / subme=3 / merange=57 / temporal-mvp / no-frame-dup / no-hme / weightp / no-weightb / no-analyze-src-pics / deblock=0:0 / sao / no-sao-non-deblock / rd=4 / selective-sao=4 / no-early-skip / rskip / no-fast-intra / no-tskip-fast / no-cu-lossless / no-b-intra / no-splitrd-skip / rdpenalty=0 / psy-rd=2.00 / psy-rdoq=1.00 / no-rd-refine / no-lossless / cbqpoffs=0 / crqpoffs=3 / rc=abr / bitrate=18000 / qcomp=0.60 / qpstep=4 / stats-write=0 / stats-read=2 / cplxblur=20.0 / qblur=0.5 / vbv-maxrate=24500 / vbv-bufsize=24500 / vbv-init=0.6 / vbv-end=0.6 / vbv-end-fr-adj=0.0 / ipratio=1.40 / pbratio=1.30 / aq-mode=2 / aq-strength=1.00 / cutree / zone-count=0 / no-strict-cbr / qg-size=32 / no-rc-grain / qpmax=69 / qpmin=0 / no-const-vbv / sar=1 / overscan=0 / videoformat=5 / range=1 / colorprim=2 / transfer=2 / colormatrix=2 / chromaloc=0 / display-window=0 / cll=0,0 / min-luma=0 / max-luma=1023 / log2-max-poc-lsb=8 / vui-timing-info / vui-hrd-info / no-concatenation / slices=1 / no-opt-qp-pps / no-opt-ref-list-length-pps / no-multi-pass-opt-rps / scenecut-bias=0.05 / hist-threshold=0.01 / no-opt-cu-delta-qp / no-aq-motion / no-hdr10 / no-hdr10-opt / no-dhdr10-opt / no-idr-recovery-sei / analysis-reuse-level=0 / analysis-save-reuse-level=0 / analysis-load-reuse-level=0 / scale-factor=0 / refine-intra=0 / refine-inter=0 / refine-mv=1 / refine-ctu-distortion=0 / no-limit-sao / ctu-info=0 / no-lowpass-dct / refine-analysis-type=0 / copy-pic=1 / max-ausize-factor=1.0 / no-dynamic-refine / no-single-sei / no-hevc-aq / no-svt / no-field / qp-adaptation-range=1.00 / no-scenecut-aware-qpconformance-window-offsets / right=0 / bottom=0 / decoder-max-rate=0
  22. Default : Yes
  23. Forced : No
  24. Color range : Full

  25. Audio
  26. ID : 2
  27. Format : E-AC-3 JOC
  28. Format/Info : Enhanced AC-3 with Joint Object Coding
  29. Commercial name : Dolby Digital Plus with Dolby Atmos
  30. Codec ID : A_EAC3
  31. Duration : 1 h 55 min
  32. Bit rate mode : Constant
  33. Bit rate : 768 kb/s
  34. Channel(s) : 6 channels
  35. Channel layout : L R C LFE Ls Rs
  36. Sampling rate : 48.0 kHz
  37. Frame rate : 31.250 FPS (1536 SPF)
  38. Compression mode : Lossy
  39. Stream size : 637 MiB (4%)
  40. Language : English
  41. Service kind : Complete Main
  42. Default : Yes
  43. Forced : No
  44. Complexity index : 16
  45. Number of dynamic objects : 15
  46. Bed channel count : 1 channel
  47. Bed channel configuration : LFE

  48. Text #1
  49. ID : 3
  50. Format : UTF-8
  51. Codec ID : S_TEXT/UTF8
  52. Codec ID/Info : UTF-8 Plain Text
  53. Title : English [SDH]
  54. Language : English
  55. Default : No
  56. Forced : No

  57. Text #2
  58. ID : 4
  59. Format : UTF-8
  60. Codec ID : S_TEXT/UTF8
  61. Codec ID/Info : UTF-8 Plain Text
  62. Title : Latin America Spanish
  63. Language : Spanish
  64. Default : No
复制代码


追忆 / 回忆 / 追忆人(台) / 回忆潜行(港)/追忆迷局4k.Reminiscence.2021.2160p.HMAX.WEB-DL.DDP5.1.Atmos.DV.MKV.x265 4K电影下载

追忆迷局4k Reminiscence.2021.2160p.HMAX.WEB-DL.x265.10bit.HDR.DDP5.1.Atmos【4K HDR 15.08 GB】
[Hao4K]追忆迷局4k.Reminiscence.2021.2160p.HMAX.WEB-DL.x265.10bit.HDR.DDP5.1.Atmo.torrent (19.65 KB, 售价: 2 个K币)
回复

使用道具 举报

全部回复106

hhxjst2008 发表于 2021-8-20 17:23:54

hhxjst2008 2

2021-8-20 17:23:54

支持支持支持
回复 支持 反对

使用道具 举报

yl6542228 发表于 2021-8-20 17:33:09

yl6542228 3

2021-8-20 17:33:09

速度快到没有字幕和朋友,感谢楼主哈哈
回复 支持 反对

使用道具 举报

niuniugong 发表于 2021-8-20 17:33:37

niuniugong 4

2021-8-20 17:33:37

支持支持支持

免费评分

参与人数 1违规值 +1 收起 理由
花落无声 + 1 违反论坛规则:无阅读意义内容(第五章第5条)

查看全部评分

回复 支持 反对

使用道具 举报

z0160802 发表于 2021-8-20 18:03:21

z0160802 5

2021-8-20 18:03:21

找不到字幕才發現,這上片日期是今天啊!

速度真是快
回复 支持 反对

使用道具 举报

暴怒的大虾 发表于 2021-8-20 18:10:56

暴怒的大虾 6

2021-8-20 18:10:56

谢谢 分享 支持支持
回复 支持 反对

使用道具 举报

lingquan 发表于 2021-8-20 19:24:37

lingquan 7

2021-8-20 19:24:37

不错,新片,感谢
回复 支持 反对

使用道具 举报

h2325124 发表于 2021-8-20 19:40:37

h2325124 8

2021-8-20 19:40:37

新片,感谢!
回复 支持 反对

使用道具 举报

raymondhwm 发表于 2021-8-20 19:50:07

raymondhwm 9

2021-8-20 19:50:07

追忆迷局 感谢!等字幕

点评

字幕:https://www.hao4k.cn/thread-60877-1-1.html  发表于 2021-8-20 20:11
回复 支持 反对

使用道具 举报

心爱 发表于 2021-8-20 19:58:23

心爱 10

2021-8-20 19:58:23


追忆迷局 感谢
回复 支持 反对

使用道具 举报

uni7f 发表于 2021-8-20 20:01:53

uni7f 11

2021-8-20 20:01:53

z0160802 发表于 2021-8-20 18:03
找不到字幕才發現,這上片日期是今天啊!

速度真是快

字幕:https://www.hao4k.cn/thread-60877-1-1.html

免费评分

参与人数 1活跃 +1 H币 +1 收起 理由
acoldboy + 1 + 1 很给力!

查看全部评分

回复 支持 反对

使用道具 举报

jetleng1006 发表于 2021-8-20 20:15:21

jetleng1006 12

2021-8-20 20:15:21

非常感谢,收下了
回复 支持 反对

使用道具 举报

stephens22 发表于 2021-8-20 21:58:40

stephens22 13

2021-8-20 21:58:40

谢谢分享,等等字幕

点评

字幕已发布了  发表于 2021-8-21 00:06
回复 支持 反对

使用道具 举报

xiaolb7882 发表于 2021-8-20 22:57:06

xiaolb7882 14

2021-8-20 22:57:06

支持楼主发布资源 这个电影有中文字幕吗

点评

有的,我已经发布了,论坛搜一下  发表于 2021-8-20 23:48
回复 支持 反对

使用道具 举报

venusbin 发表于 2021-8-20 22:59:58

venusbin 15

2021-8-20 22:59:58

狼叔的电影 要看看 还有西部世界的女主
回复 支持 反对

使用道具 举报

大大的微笑 发表于 2021-8-20 23:52:30

大大的微笑 16

2021-8-20 23:52:30

uni7f 发表于 2021-8-20 20:01
字幕:https://www.hao4k.cn/thread-60877-1-1.html

给力啊 老铁
回复 支持 反对

使用道具 举报

大大的微笑 发表于 2021-8-20 23:53:51

大大的微笑 17

2021-8-20 23:53:51

给力啊北美才上映流媒体,就可以撸4Kweb了
回复 支持 反对

使用道具 举报

184829459 发表于 2021-8-21 02:10:02

184829459 18

2021-8-21 02:10:02

休·杰克曼的新片,应该很不错,演技派实力雄厚!
回复 支持 反对

使用道具 举报

   发表回复

您需要登录后才可以回帖 登录 | 立即注册

返回列表 本版积分规则

  • 在线客服

  • 返回顶部