微博 微信

Hao4K影音

电视剧频道
电视剧封面:
电视剧名: 肇事逃逸4k
年  代: 2021  
国  家: 美国
类  别: 剧情 
语  言: -
字  幕: -
上映日期: 2021-08-06
文件格式: mkv    
视频效果: 4K(3840x2160)    
资源大小: 28.40 GB
片  长: -
导  演: Jessica Brickman / 阿里·萨利姆 / Avi Issacharoff
剧情简介:  惊悚悬疑影集《意外真相》讲述一名男子在爱妻惨遭杀害之后,踏上黑暗的旅程,不计一切代价,要查出她横死的真相。《意外真相》将在今年夏天强袭 Netflix。
意外真相/肇事逃逸4k Hit.And.Run.S01.2160p.NF.WEBRip.x265.10bit.HDR.DDP5.1.Atmos美剧信息
  1. Video
  2. ID : 1
  3. Format : HEVC
  4. Format/Info : High Efficiency Video Coding
  5. Format profile : Main 10@L5.1@High
  6. HDR format : SMPTE ST 2086, HDR10 compatible
  7. Codec ID : V_MPEGH/ISO/HEVC
  8. Duration : 49 min 1 s
  9. Bit rate : 10.3 Mb/s
  10. Width : 3 840 pixels
  11. Height : 1 920 pixels
  12. Display aspect ratio : 2.000
  13. Frame rate mode : Constant
  14. Frame rate : 24.000 FPS
  15. Color space : YUV
  16. Chroma subsampling : 4:2:0 (Type 2)
  17. Bit depth : 10 bits
  18. Bits/(Pixel*Frame) : 0.058
  19. Stream size : 3.53 GiB (93%)
  20. Writing library : x265 3.5+9-bf91444e0:[Windows][GCC 10.0.0][64 bit] 10bit
  21. Encoding settings : cpuid=1111039 / frame-threads=4 / numa-pools=16 / wpp / no-pmode / no-pme / no-psnr / no-ssim / log-level=2 / input-csp=1 / input-res=3840x1920 / interlace=0 / total-frames=0 / level-idc=51 / high-tier=1 / uhd-bd=0 / ref=4 / no-allow-non-conformance / repeat-headers / annexb / no-aud / no-eob / no-eos / no-hrd / info / hash=0 / no-temporal-layers / no-open-gop / min-keyint=23 / keyint=250 / gop-lookahead=0 / bframes=3 / b-adapt=2 / b-pyramid / bframe-bias=0 / rc-lookahead=20 / lookahead-slices=8 / scenecut=40 / hist-scenecut=0 / radl=0 / no-splice / no-intra-refresh / ctu=64 / min-cu-size=8 / no-rect / no-amp / max-tu-size=32 / tu-inter-depth=1 / tu-intra-depth=1 / limit-tu=0 / rdoq-level=0 / dynamic-rd=0.00 / no-ssim-rd / signhide / no-tskip / nr-intra=0 / nr-inter=0 / no-constrained-intra / no-strong-intra-smoothing / max-merge=3 / limit-refs=1 / no-limit-modes / me=1 / subme=2 / merange=57 / temporal-mvp / no-frame-dup / no-hme / weightp / no-weightb / no-analyze-src-pics / deblock=-3:-3 / no-sao / no-sao-non-deblock / rd=3 / selective-sao=0 / early-skip / rskip / no-fast-intra / no-tskip-fast / no-cu-lossless / b-intra / no-splitrd-skip / rdpenalty=0 / psy-rd=2.00 / psy-rdoq=0.00 / no-rd-refine / no-lossless / cbqpoffs=0 / crqpoffs=0 / rc=crf / crf=17.0 / qcomp=0.60 / qpstep=4 / stats-write=0 / stats-read=0 / vbv-maxrate=160000 / vbv-bufsize=160000 / vbv-init=0.9 / min-vbv-fullness=50.0 / max-vbv-fullness=80.0 / crf-max=0.0 / crf-min=0.0 / ipratio=1.40 / pbratio=1.30 / aq-mode=2 / aq-strength=1.00 / no-cutree / zone-count=0 / no-strict-cbr / qg-size=32 / no-rc-grain / qpmax=69 / qpmin=0 / no-const-vbv / sar=0 / overscan=0 / videoformat=5 / range=0 / colorprim=9 / transfer=16 / colormatrix=9 / chromaloc=1 / chromaloc-top=2 / chromaloc-bottom=2 / display-window=0 / master-display=G(13250,34500)B(7500,3000)R(34000,16000)WP(15635,16450)L(10000000,1) / cll=738,96 / min-luma=0 / max-luma=1023 / log2-max-poc-lsb=8 / vui-timing-info / vui-hrd-info / slices=1 / no-opt-qp-pps / no-opt-ref-list-length-pps / no-multi-pass-opt-rps / scenecut-bias=0.05 / hist-threshold=0.03 / no-opt-cu-delta-qp / no-aq-motion / hdr10 / hdr10-opt / no-dhdr10-opt / no-idr-recovery-sei / analysis-reuse-level=0 / analysis-save-reuse-level=0 / analysis-load-reuse-level=0 / scale-factor=0 / refine-intra=0 / refine-inter=0 / refine-mv=1 / refine-ctu-distortion=0 / no-limit-sao / ctu-info=0 / no-lowpass-dct / refine-analysis-type=0 / copy-pic=1 / max-ausize-factor=1.0 / no-dynamic-refine / no-single-sei / no-hevc-aq / no-svt / no-field / qp-adaptation-range=1.00 / scenecut-aware-qp=0conformance-window-offsets / right=0 / bottom=0 / decoder-max-rate=0 / no-vbv-live-multi-pass
  22. Default : Yes
  23. Forced : No
  24. Color range : Limited
  25. Color primaries : BT.2020
  26. Transfer characteristics : PQ
  27. Matrix coefficients : BT.2020 non-constant
  28. Mastering display color primaries : Display P3
  29. Mastering display luminance : min: 0.0001 cd/m2, max: 1000 cd/m2
  30. Maximum Content Light Level : 738 cd/m2
  31. Maximum Frame-Average Light Level : 96 cd/m2

  32. Audio
  33. ID : 2
  34. Format : E-AC-3 JOC
  35. Format/Info : Enhanced AC-3 with Joint Object Coding
  36. Commercial name : Dolby Digital Plus with Dolby Atmos
  37. Codec ID : A_EAC3
  38. Duration : 50 min 22 s
  39. Bit rate mode : Constant
  40. Bit rate : 768 kb/s
  41. Channel(s) : 6 channels
  42. Channel layout : L R C LFE Ls Rs
  43. Sampling rate : 48.0 kHz
  44. Frame rate : 31.250 FPS (1536 SPF)
  45. Compression mode : Lossy
  46. Delay relative to video : 5 ms
  47. Stream size : 277 MiB (7%)
  48. Title : English
  49. Language : English
  50. Service kind : Complete Main
  51. Default : Yes
  52. Forced : No
  53. Complexity index : 16
  54. Number of dynamic objects : 15
  55. Bed channel count : 1 channel
  56. Bed channel configuration : LFE

  57. Text #1
  58. ID : 3
  59. Format : UTF-8
  60. Codec ID : S_TEXT/UTF8
  61. Codec ID/Info : UTF-8 Plain Text
  62. Duration : 45 min 30 s
  63. Bit rate : 10 b/s
  64. Count of elements : 116
  65. Stream size : 3.46 KiB (0%)
  66. Title : Forced
  67. Language : English
  68. Default : Yes
  69. Forced : Yes

  70. Text #2
  71. ID : 4
  72. Format : UTF-8
  73. Codec ID : S_TEXT/UTF8
  74. Codec ID/Info : UTF-8 Plain Text
  75. Duration : 48 min 17 s
  76. Bit rate : 49 b/s
  77. Count of elements : 548
  78. Stream size : 17.7 KiB (0%)
  79. Title : SDH
  80. Language : English
  81. Default : No
  82. Forced : No

  83. Text #3
  84. ID : 5
  85. Format : UTF-8
  86. Codec ID : S_TEXT/UTF8
  87. Codec ID/Info : UTF-8 Plain Text
  88. Duration : 48 min 56 s
  89. Bit rate : 39 b/s
  90. Count of elements : 471
  91. Stream size : 14.1 KiB (0%)
  92. Title : Latin America
  93. Language : Spanish
  94. Default : No
  95. Forced : No

  96. Text #4
  97. ID : 6
  98. Format : UTF-8
  99. Codec ID : S_TEXT/UTF8
  100. Codec ID/Info : UTF-8 Plain Text
  101. Duration : 48 min 56 s
  102. Bit rate : 41 b/s
  103. Count of elements : 470
  104. Stream size : 14.8 KiB (0%)
  105. Language : Spanish
  106. Default : No
  107. Forced : No

  108. Text #5
  109. ID : 7
  110. Format : UTF-8
  111. Codec ID : S_TEXT/UTF8
  112. Codec ID/Info : UTF-8 Plain Text
  113. Duration : 48 min 56 s
  114. Bit rate : 40 b/s
  115. Count of elements : 470
  116. Stream size : 14.4 KiB (0%)
  117. Title : Brazilian
  118. Language : Portuguese
  119. Default : No
  120. Forced : No

  121. Text #6
  122. ID : 8
  123. Format : UTF-8
  124. Codec ID : S_TEXT/UTF8
  125. Codec ID/Info : UTF-8 Plain Text
  126. Duration : 48 min 56 s
  127. Bit rate : 40 b/s
  128. Count of elements : 470
  129. Stream size : 14.5 KiB (0%)
  130. Language : German
  131. Default : No
  132. Forced : No

  133. Text #7
  134. ID : 9
  135. Format : UTF-8
  136. Codec ID : S_TEXT/UTF8
  137. Codec ID/Info : UTF-8 Plain Text
  138. Duration : 48 min 56 s
  139. Bit rate : 41 b/s
  140. Count of elements : 460
  141. Stream size : 14.7 KiB (0%)
  142. Language : French
  143. Default : No
  144. Forced : No

  145. Text #8
  146. ID : 10
  147. Format : UTF-8
  148. Codec ID : S_TEXT/UTF8
  149. Codec ID/Info : UTF-8 Plain Text
  150. Duration : 48 min 56 s
  151. Bit rate : 42 b/s
  152. Count of elements : 471
  153. Stream size : 15.3 KiB (0%)
  154. Title : Simplified
  155. Language : Chinese
  156. Default : No
  157. Forced : No

  158. Text #9
  159. ID : 11
  160. Format : UTF-8
  161. Codec ID : S_TEXT/UTF8
  162. Codec ID/Info : UTF-8 Plain Text
  163. Duration : 48 min 56 s
  164. Bit rate : 42 b/s
  165. Count of elements : 472
  166. Stream size : 15.3 KiB (0%)
  167. Title : Traditional
  168. Language : Chinese
  169. Default : No
  170. Forced : No

  171. Text #10
  172. ID : 12
  173. Format : UTF-8
  174. Codec ID : S_TEXT/UTF8
  175. Codec ID/Info : UTF-8 Plain Text
  176. Duration : 48 min 56 s
  177. Bit rate : 70 b/s
  178. Count of elements : 472
  179. Stream size : 25.3 KiB (0%)
  180. Language : Arabic
  181. Default : No
  182. Forced : No

  183. Text #11
  184. ID : 13
  185. Format : UTF-8
  186. Codec ID : S_TEXT/UTF8
  187. Codec ID/Info : UTF-8 Plain Text
  188. Duration : 48 min 56 s
  189. Bit rate : 39 b/s
  190. Count of elements : 471
  191. Stream size : 14.1 KiB (0%)
  192. Language : Croatian
  193. Default : No
  194. Forced : No

  195. Text #12
  196. ID : 14
  197. Format : UTF-8
  198. Codec ID : S_TEXT/UTF8
  199. Codec ID/Info : UTF-8 Plain Text
  200. Duration : 48 min 56 s
  201. Bit rate : 39 b/s
  202. Count of elements : 472
  203. Stream size : 14.2 KiB (0%)
  204. Language : Czech
  205. Default : No
  206. Forced : No

  207. Text #13
  208. ID : 15
  209. Format : UTF-8
  210. Codec ID : S_TEXT/UTF8
  211. Codec ID/Info : UTF-8 Plain Text
  212. Duration : 48 min 56 s
  213. Bit rate : 37 b/s
  214. Count of elements : 463
  215. Stream size : 13.3 KiB (0%)
  216. Language : Danish
  217. Default : No
  218. Forced : No

  219. Text #14
  220. ID : 16
  221. Format : UTF-8
  222. Codec ID : S_TEXT/UTF8
  223. Codec ID/Info : UTF-8 Plain Text
  224. Duration : 48 min 56 s
  225. Bit rate : 39 b/s
  226. Count of elements : 437
  227. Stream size : 14.0 KiB (0%)
  228. Language : Dutch
  229. Default : No
  230. Forced : No

  231. Text #15
  232. ID : 17
  233. Format : UTF-8
  234. Codec ID : S_TEXT/UTF8
  235. Codec ID/Info : UTF-8 Plain Text
  236. Duration : 48 min 56 s
  237. Bit rate : 38 b/s
  238. Count of elements : 376
  239. Stream size : 13.7 KiB (0%)
  240. Language : Finnish
  241. Default : No
  242. Forced : No

  243. Text #16
  244. ID : 18
  245. Format : UTF-8
  246. Codec ID : S_TEXT/UTF8
  247. Codec ID/Info : UTF-8 Plain Text
  248. Duration : 48 min 56 s
  249. Bit rate : 69 b/s
  250. Count of elements : 467
  251. Stream size : 24.9 KiB (0%)
  252. Language : Greek
  253. Default : No
  254. Forced : No

  255. Text #17
  256. ID : 19
  257. Format : UTF-8
  258. Codec ID : S_TEXT/UTF8
  259. Codec ID/Info : UTF-8 Plain Text
  260. Duration : 48 min 56 s
  261. Bit rate : 66 b/s
  262. Count of elements : 473
  263. Stream size : 23.8 KiB (0%)
  264. Language : Hebrew
  265. Default : No
  266. Forced : No

  267. Text #18
  268. ID : 20
  269. Format : UTF-8
  270. Codec ID : S_TEXT/UTF8
  271. Codec ID/Info : UTF-8 Plain Text
  272. Duration : 48 min 56 s
  273. Bit rate : 38 b/s
  274. Count of elements : 462
  275. Stream size : 13.6 KiB (0%)
  276. Language : Hungarian
  277. Default : No
  278. Forced : No

  279. Text #19
  280. ID : 21
  281. Format : UTF-8
  282. Codec ID : S_TEXT/UTF8
  283. Codec ID/Info : UTF-8 Plain Text
  284. Duration : 48 min 56 s
  285. Bit rate : 38 b/s
  286. Count of elements : 471
  287. Stream size : 13.7 KiB (0%)
  288. Language : Indonesian
  289. Default : No
  290. Forced : No

  291. Text #20
  292. ID : 22
  293. Format : UTF-8
  294. Codec ID : S_TEXT/UTF8
  295. Codec ID/Info : UTF-8 Plain Text
  296. Duration : 48 min 56 s
  297. Bit rate : 39 b/s
  298. Count of elements : 471
  299. Stream size : 14.2 KiB (0%)
  300. Language : Italian
  301. Default : No
  302. Forced : No

  303. Text #21
  304. ID : 23
  305. Format : UTF-8
  306. Codec ID : S_TEXT/UTF8
  307. Codec ID/Info : UTF-8 Plain Text
  308. Duration : 48 min 54 s
  309. Bit rate : 40 b/s
  310. Count of elements : 493
  311. Stream size : 14.7 KiB (0%)
  312. Language : Japanese
  313. Default : No
  314. Forced : No

  315. Text #22
  316. ID : 24
  317. Format : UTF-8
  318. Codec ID : S_TEXT/UTF8
  319. Codec ID/Info : UTF-8 Plain Text
  320. Duration : 48 min 56 s
  321. Bit rate : 50 b/s
  322. Count of elements : 483
  323. Stream size : 18.3 KiB (0%)
  324. Language : Korean
  325. Default : No
  326. Forced : No

  327. Text #23
  328. ID : 25
  329. Format : UTF-8
  330. Codec ID : S_TEXT/UTF8
  331. Codec ID/Info : UTF-8 Plain Text
  332. Duration : 48 min 56 s
  333. Bit rate : 41 b/s
  334. Count of elements : 451
  335. Stream size : 15.0 KiB (0%)
  336. Language : Malay
  337. Default : No
  338. Forced : No

  339. Text #24
  340. ID : 26
  341. Format : UTF-8
  342. Codec ID : S_TEXT/UTF8
  343. Codec ID/Info : UTF-8 Plain Text
  344. Duration : 48 min 56 s
  345. Bit rate : 35 b/s
  346. Count of elements : 361
  347. Stream size : 12.8 KiB (0%)
  348. Language : Norwegian Bokmal
  349. Default : No
  350. Forced : No

  351. Text #25
  352. ID : 27
  353. Format : UTF-8
  354. Codec ID : S_TEXT/UTF8
  355. Codec ID/Info : UTF-8 Plain Text
  356. Duration : 48 min 56 s
  357. Bit rate : 38 b/s
  358. Count of elements : 472
  359. Stream size : 13.9 KiB (0%)
  360. Language : Polish
  361. Default : No
  362. Forced : No

  363. Text #26
  364. ID : 28
  365. Format : UTF-8
  366. Codec ID : S_TEXT/UTF8
  367. Codec ID/Info : UTF-8 Plain Text
  368. Duration : 48 min 56 s
  369. Bit rate : 41 b/s
  370. Count of elements : 459
  371. Stream size : 14.7 KiB (0%)
  372. Language : Portuguese
  373. Default : No
  374. Forced : No

  375. Text #27
  376. ID : 29
  377. Format : UTF-8
  378. Codec ID : S_TEXT/UTF8
  379. Codec ID/Info : UTF-8 Plain Text
  380. Duration : 48 min 56 s
  381. Bit rate : 44 b/s
  382. Count of elements : 470
  383. Stream size : 15.8 KiB (0%)
  384. Language : Romanian
  385. Default : No
  386. Forced : No

  387. Text #28
  388. ID : 30
  389. Format : UTF-8
  390. Codec ID : S_TEXT/UTF8
  391. Codec ID/Info : UTF-8 Plain Text
  392. Duration : 48 min 56 s
  393. Bit rate : 65 b/s
  394. Count of elements : 472
  395. Stream size : 23.3 KiB (0%)
  396. Language : Russian
  397. Default : No
  398. Forced : No

  399. Text #29
  400. ID : 31
  401. Format : UTF-8
  402. Codec ID : S_TEXT/UTF8
  403. Codec ID/Info : UTF-8 Plain Text
  404. Duration : 48 min 56 s
  405. Bit rate : 41 b/s
  406. Count of elements : 456
  407. Stream size : 14.8 KiB (0%)
  408. Language : Swedish
  409. Default : No
  410. Forced : No

  411. Text #30
  412. ID : 32
  413. Format : UTF-8
  414. Codec ID : S_TEXT/UTF8
  415. Codec ID/Info : UTF-8 Plain Text
  416. Duration : 48 min 56 s
  417. Bit rate : 109 b/s
  418. Count of elements : 472
  419. Stream size : 39.1 KiB (0%)
  420. Language : Thai
  421. Default : No
  422. Forced : No

  423. Text #31
  424. ID : 33
  425. Format : UTF-8
  426. Codec ID : S_TEXT/UTF8
  427. Codec ID/Info : UTF-8 Plain Text
  428. Duration : 48 min 56 s
  429. Bit rate : 41 b/s
  430. Count of elements : 472
  431. Stream size : 14.9 KiB (0%)
  432. Language : Turkish
  433. Default : No
  434. Forced : No

  435. Text #32
  436. ID : 34
  437. Format : UTF-8
  438. Codec ID : S_TEXT/UTF8
  439. Codec ID/Info : UTF-8 Plain Text
  440. Duration : 48 min 56 s
  441. Bit rate : 62 b/s
  442. Count of elements : 472
  443. Stream size : 22.6 KiB (0%)
  444. Language : Ukrainian
  445. Default : No
  446. Forced : No

  447. Text #33
  448. ID : 35
  449. Format : UTF-8
  450. Codec ID : S_TEXT/UTF8
  451. Codec ID/Info : UTF-8 Plain Text
  452. Duration : 48 min 56 s
  453. Bit rate : 58 b/s
  454. Count of elements : 461
  455. Stream size : 21.0 KiB (0%)
  456. Language : Vietnamese
  457. Default : No
  458. Forced : No
复制代码

意外真相/肇事逃逸4k Hit.And.Run.S01.2160p.NF.WEBRip.x265.10bit.HDR.DDP5.1.Atmos美剧下载

肇事逃逸4k Hit.And.Run.S01.2160p.NF.WEBRip.x265.10bit.HDR.DDP5.1.Atmos【28.40 GB】
[Hao4k]肇事逃逸4k Hit.And.Run.S01.2160p.NF.WEBRip.x265.10bit.HDR.DDP5.1.Atmos-182K.torrent (36.87 KB)
回复

使用道具 举报

   发表回复

您需要登录后才可以回帖 登录 | 立即注册

返回列表 本版积分规则

  • 在线客服

  • 返回顶部