微博 微信

Hao4K影音

电影频道
电影封面:
片  名: 设计爱情4k
电影分类: 喜剧 
国  家: 加拿大 
年  代: 2019年
分 辨 率: 4K(3840x2160)
电影格式: MKV|REMUX 
画质标准: SDR 
音质编码: Dolby Digital Audio 
电影声道: 5.1声道 
帧数/FPS: 23.976 帧
电影语言: 英文原版 
资源大小: 9.49 GB
导  演: Jake Horowitz
豆瓣评分: 5.2 分
中文字幕: -
剧情简介: 科尔,一个有抱负的二十多岁的编剧,决定写他迄今为止最雄心勃勃的剧本,策划一个异想天开,他的编剧偶像的女儿谈恋爱,来接近她有名的父亲,好在影视界崭露头角
All About Who You Know/设计爱情4k All.About.Who.You.Know.2019.2160p.WEB-DL.x265.10bit.SDR.DD5.1.x265-4k电影信息
  1. Video
  2. ID : 1
  3. Format : HEVC
  4. Format/Info : High Efficiency Video Coding
  5. Format profile : Main 10@L5@High
  6. Codec ID : V_MPEGH/ISO/HEVC
  7. Duration : 1 h 51 min
  8. Bit rate : 11.8 Mb/s
  9. Width : 3 832 pixels
  10. Height : 1 608 pixels
  11. Display aspect ratio : 2.40:1
  12. Frame rate mode : Constant
  13. Frame rate : 23.976 FPS
  14. Color space : YUV
  15. Chroma subsampling : 4:2:0
  16. Bit depth : 10 bits
  17. Bits/(Pixel*Frame) : 0.080
  18. Stream size : 9.19 GiB (97%)
  19. Language : English
  20. Default : Yes
  21. Forced : No
  22. Color range : Limited
  23. Color primaries : BT.709
  24. Transfer characteristics : BT.709
  25. Matrix coefficients : BT.709

  26. Audio
  27. ID : 2
  28. Format : AC-3
  29. Format/Info : Audio Coding 3
  30. Commercial name : Dolby Digital
  31. Codec ID : A_AC3
  32. Duration : 1 h 51 min
  33. Bit rate mode : Constant
  34. Bit rate : 384 kb/s
  35. Channel(s) : 6 channels
  36. Channel layout : L R C LFE Ls Rs
  37. Sampling rate : 48.0 kHz
  38. Frame rate : 31.250 FPS (1536 SPF)
  39. Compression mode : Lossy
  40. Stream size : 305 MiB (3%)
  41. Language : English
  42. Service kind : Complete Main
  43. Default : Yes
  44. Forced : No

  45. Text
  46. ID : 3
  47. Format : UTF-8
  48. Codec ID : S_TEXT/UTF8
  49. Codec ID/Info : UTF-8 Plain Text
  50. Duration : 1 h 50 min
  51. Bit rate : 83 b/s
  52. Count of elements : 1956
  53. Stream size : 67.4 KiB (0%)
  54. Title : (SDH)
  55. Language : English
  56. Default : No
  57. Forced : No
复制代码


All About Who You Know/设计爱情4k All.About.Who.You.Know.2019.2160p.WEB-DL.x265.10bit.SDR.DD5.1.x265-4k电影下载

设计爱情4k All.About.Who.You.Know.2019.2160p.WEB-DL.x265.10bit.SDR.DD5.1.x265【9.49 GB】
[Hao4k]设计爱情4k All.About.Who.You.Know.2019.2160p.WEB-DL.x265.10bit.SDR.DD5.1..torrent (24.38 KB)
回复

使用道具 举报

全部回复1

fbq3000 发表于 2021-9-8 18:45:28

fbq3000 2

2021-9-8 18:45:28

感谢分享,很喜欢的一部小众电影,导演的阿格尼斯也不错
回复 支持 反对

使用道具 举报

   发表回复

您需要登录后才可以回帖 登录 | 立即注册

返回列表 本版积分规则

  • 在线客服

  • 返回顶部