微博 微信

Hao4K影音

电影频道
电影封面:
片  名: April.In.Autumn
电影分类: 剧情 
国  家: 加拿大 
年  代: 2018年
分 辨 率: 4K(3840x2160)
电影格式: MKV|REMUX 
画质标准: SDR 
音质编码: Dolby Digital Audio 
电影声道: 5.1声道 
帧数/FPS: 23.976 帧
电影语言: 英文原版 
资源大小: 7.98 GB
导  演: Warren Sulatycky
豆瓣评分: 5.1 分
中文字幕: -
剧情简介:  April returns home to Toronto after traveling and working abroad for several years to help her sister, Sara, care for their mother who is facing health problems. Upon April\'s return, she literally unearths old family secrets that threaten the gentle balance of home. Sara, who is studying the music of french composer Erik Satie, befriends a homeless man Erik who may have a connection to her mother\'s romantic past, while April equivocates on a marriage proposal from her long distance boyfriend she met on her travels, Oscar. The story culminates on the eve of their mother\'s birthday dinner, when Oscar arrives unannounced from Argentina and Sara\'s homeless friend shows up for the celebration.
April.In.Autumn.2018.2160p.WEB-DL.x265.10bit.SDR.DD5.1.x265电影信息
  1. Video
  2. ID : 1
  3. Format : HEVC
  4. Format/Info : High Efficiency Video Coding
  5. Format profile : Main 10@L5@High
  6. Codec ID : V_MPEGH/ISO/HEVC
  7. Duration : 1 h 33 min
  8. Bit rate : 11.8 Mb/s
  9. Width : 3 836 pixels
  10. Height : 2 072 pixels
  11. Display aspect ratio : 1.85:1
  12. Frame rate mode : Constant
  13. Frame rate : 23.976 FPS
  14. Color space : YUV
  15. Chroma subsampling : 4:2:0
  16. Bit depth : 10 bits
  17. Bits/(Pixel*Frame) : 0.062
  18. Stream size : 7.73 GiB (97%)
  19. Language : English
  20. Default : Yes
  21. Forced : No
  22. Color range : Limited
  23. Color primaries : BT.709
  24. Transfer characteristics : BT.709
  25. Matrix coefficients : BT.709

  26. Audio
  27. ID : 2
  28. Format : AC-3
  29. Format/Info : Audio Coding 3
  30. Commercial name : Dolby Digital
  31. Codec ID : A_AC3
  32. Duration : 1 h 33 min
  33. Bit rate mode : Constant
  34. Bit rate : 384 kb/s
  35. Channel(s) : 6 channels
  36. Channel layout : L R C LFE Ls Rs
  37. Sampling rate : 48.0 kHz
  38. Frame rate : 31.250 FPS (1536 SPF)
  39. Compression mode : Lossy
  40. Stream size : 257 MiB (3%)
  41. Language : English
  42. Service kind : Complete Main
  43. Default : Yes
  44. Forced : No

  45. Text
  46. ID : 3
  47. Format : UTF-8
  48. Codec ID : S_TEXT/UTF8
  49. Codec ID/Info : UTF-8 Plain Text
  50. Duration : 1 h 30 min
  51. Bit rate : 62 b/s
  52. Count of elements : 1348
  53. Stream size : 41.7 KiB (0%)
  54. Title : (SDH)
  55. Language : English
  56. Default : No
  57. Forced : No
复制代码

April.In.Autumn.2018.2160p.WEB-DL.x265.10bit.SDR.DD5.1.x265电影下载
April.In.Autumn.2018.2160p.WEB-DL.x265.10bit.SDR.DD5.1.x265【7.98 GB】
[Hao4k]April.In.Autumn.2018.2160p.WEB-DL.x265.10bit.SDR.DD5.1.x265-ROCCaT.torrent (20.6 KB)
回复

使用道具 举报

全部回复3

QQ_1C652F 发表于 2021-8-25 12:17:53

QQ_1C652F 2

2021-8-25 12:17:53

谢谢楼主无私分享
回复 支持 反对

使用道具 举报

783534706 发表于 2021-8-28 23:41:21

783534706 3

2021-8-28 23:41:21

感谢楼主的无私分享
回复 支持 反对

使用道具 举报

添爸 发表于 2021-8-29 21:01:28

添爸 4

2021-8-29 21:01:28

感谢楼主的无私分享
回复 支持 反对

使用道具 举报

   发表回复

您需要登录后才可以回帖 登录 | 立即注册

返回列表 本版积分规则

  • 在线客服

  • 返回顶部