微博 微信

Hao4K影音

电影频道
电影封面:
片  名: 小心身后4k
电影分类: 恐怖 
国  家: 美国 
年  代: 2020年
分 辨 率: 4K(3840x2160)
电影格式: MKV|REMUX 
画质标准: SDR 
音质编码: 其他AAC 
电影声道: 2.0声道 
帧数/FPS: 23.976 帧
电影语言: 英文原版 
资源大小: 7.39 GB
导  演: Andrew Mecham / Matthew Whedon
豆瓣评分: 4.2 分
中文字幕: /thread-61131-1-1.html
剧情简介:  Two young sisters find that all the mirrors in their estranged aunt\'s house are covered or hidden. When one of them happens upon a mirror in the basement, she unknowingly releases a malicious demon.
小心背后/小心身后4k Behind.You.2020.2160p.WEB-DL.x265.10bit.SDR.AAC2.0.x265-4k电影信息
  1. Video
  2. ID : 1
  3. Format : HEVC
  4. Format/Info : High Efficiency Video Coding
  5. Format profile : Main 10@L5@High
  6. Codec ID : V_MPEGH/ISO/HEVC
  7. Duration : 1 h 26 min
  8. Bit rate : 12.1 Mb/s
  9. Width : 3 828 pixels
  10. Height : 1 620 pixels
  11. Display aspect ratio : 2.35:1
  12. Frame rate mode : Constant
  13. Frame rate : 23.976 FPS
  14. Color space : YUV
  15. Chroma subsampling : 4:2:0
  16. Bit depth : 10 bits
  17. Bits/(Pixel*Frame) : 0.082
  18. Stream size : 7.31 GiB (99%)
  19. Language : English
  20. Default : Yes
  21. Forced : No
  22. Color range : Limited
  23. Color primaries : BT.709
  24. Transfer characteristics : BT.709
  25. Matrix coefficients : BT.709

  26. Audio
  27. ID : 2
  28. Format : AAC LC
  29. Format/Info : Advanced Audio Codec Low Complexity
  30. Codec ID : A_AAC-2
  31. Duration : 1 h 26 min
  32. Bit rate : 124 kb/s
  33. Channel(s) : 2 channels
  34. Channel layout : L R
  35. Sampling rate : 48.0 kHz
  36. Frame rate : 46.875 FPS (1024 SPF)
  37. Compression mode : Lossy
  38. Stream size : 76.2 MiB (1%)
  39. Language : English
  40. Default : Yes
  41. Forced : No

  42. Text
  43. ID : 3
  44. Format : UTF-8
  45. Codec ID : S_TEXT/UTF8
  46. Codec ID/Info : UTF-8 Plain Text
  47. Duration : 1 h 20 min
  48. Bit rate : 30 b/s
  49. Count of elements : 768
  50. Stream size : 18.1 KiB (0%)
  51. Title : (SDH)
  52. Language : English
  53. Default : No
  54. Forced : No
复制代码

小心背后/小心身后4k Behind.You.2020.2160p.WEB-DL.x265.10bit.SDR.AAC2.0.x265-4k电影下载
小心身后4k Behind.You.2020.2160p.WEB-DL.x265.10bit.SDR.AAC2.0.x265【7.39 GB】
[Hao4k]小心身后4k Behind.You.2020.2160p.WEB-DL.x265.10bit.SDR.AAC2.0.x265-ROCCaT.torrent (19.1 KB)
回复

使用道具 举报

全部回复5

wubin1975 发表于 2021-8-24 15:14:02

wubin1975 2

2021-8-24 15:14:02

谢谢分享
回复 支持 反对

使用道具 举报

venusbin 发表于 2021-8-24 23:13:59

venusbin 3

2021-8-24 23:13:59

无聊下来看看
回复 支持 反对

使用道具 举报

QQ_1C652F 发表于 2021-8-25 12:19:38

QQ_1C652F 4

2021-8-25 12:19:38

谢谢楼主无私分享
回复 支持 反对

使用道具 举报

jonva 发表于 2021-8-27 13:14:43

jonva 5

2021-8-27 13:14:43

好看的恐怖片
回复 支持 反对

使用道具 举报

novaccc 发表于 2021-9-4 10:52:07

novaccc 6

2021-9-4 10:52:07

支持一下
回复 支持 反对

使用道具 举报

   发表回复

您需要登录后才可以回帖 登录 | 立即注册

返回列表 本版积分规则

  • 在线客服

  • 返回顶部