微博 微信

Hao4K影音

电影频道
电影封面:
片  名: 欢乐无限:任与史汀比的故事4k
电影分类: 纪录片 动画 
国  家: 美国 
年  代: 2020年
分 辨 率: 4K(3840x2160)
电影格式: MKV|REMUX 
画质标准: SDR 
音质编码: Dolby Digital Audio 
电影声道: 5.1声道 
帧数/FPS: 23.976 帧
电影语言: 英文原版 
资源大小: 9.14 GB
导  演: Kimo Easterwood
豆瓣评分: 7.1 分
中文字幕: -
剧情简介:  90年代初,动画片《Ren & Stimpy》打破有线收视纪录,对那一代粉丝和艺术家来说也是试金石……
  In the early 1990s, the animated show Ren & Stimpy broke cable ratings records and was a touchstone for a generation of fans and artists. Creator John Kricfalusi was celebrated as a visionary, but even though his personality suffused the show, dozens of artists and network executives were just as responsible for the show’s meteoric rise. As Kricfalusi’s worst impulses were let loose at the workplace and new allegations about even more disturbing behavior have surfaced, his reputation now threatens to taint the show forever.
  With clips recognizable to any Ren & Stimpy fan and interviews with Kricfalusi and his fellow creators whose work has been both elevated and denigrated by their connection to him, this film is a complex look at a show that influenced the history of television, animation, and comedy. More than a celebration, Happy Happy Joy Joy - The Ren & Stimpy Story forces us to consider the role of media creators and how we reckon with the reality of who they are versus what we see on the screen.
欢乐无限:任与史汀比的故事4k Happy.Happy.Joy.Joy.The.Ren.and.Stimpy.Story.2020.2160p.WEB-DL.x265.10bit.SDR.DD5.1.x265-4k电影信息
  1. Video
  2. ID : 1
  3. Format : HEVC
  4. Format/Info : High Efficiency Video Coding
  5. Format profile : Main 10@L5@High
  6. Codec ID : V_MPEGH/ISO/HEVC
  7. Duration : 1 h 45 min
  8. Bit rate : 12.0 Mb/s
  9. Width : 3 836 pixels
  10. Height : 2 156 pixels
  11. Display aspect ratio : 16:9
  12. Frame rate mode : Constant
  13. Frame rate : 23.976 FPS
  14. Color space : YUV
  15. Chroma subsampling : 4:2:0
  16. Bit depth : 10 bits
  17. Bits/(Pixel*Frame) : 0.061
  18. Stream size : 8.86 GiB (97%)
  19. Language : English
  20. Default : Yes
  21. Forced : No
  22. Color range : Limited
  23. Color primaries : BT.709
  24. Transfer characteristics : BT.709
  25. Matrix coefficients : BT.709

  26. Audio
  27. ID : 2
  28. Format : AC-3
  29. Format/Info : Audio Coding 3
  30. Commercial name : Dolby Digital
  31. Codec ID : A_AC3
  32. Duration : 1 h 45 min
  33. Bit rate mode : Constant
  34. Bit rate : 384 kb/s
  35. Channel(s) : 6 channels
  36. Channel layout : L R C LFE Ls Rs
  37. Sampling rate : 48.0 kHz
  38. Frame rate : 31.250 FPS (1536 SPF)
  39. Compression mode : Lossy
  40. Stream size : 290 MiB (3%)
  41. Language : English
  42. Service kind : Complete Main
  43. Default : Yes
  44. Forced : No

  45. Text #1
  46. ID : 3
  47. Format : UTF-8
  48. Codec ID : S_TEXT/UTF8
  49. Codec ID/Info : UTF-8 Plain Text
  50. Duration : 1 h 41 min
  51. Bit rate : 98 b/s
  52. Count of elements : 1434
  53. Stream size : 73.1 KiB (0%)
  54. Title : (SDH)
  55. Language : English
  56. Default : No
  57. Forced : No

  58. Text #2
  59. ID : 4
  60. Format : UTF-8
  61. Codec ID : S_TEXT/UTF8
  62. Codec ID/Info : UTF-8 Plain Text
  63. Duration : 8 min 41 s
  64. Bit rate : 3 b/s
  65. Count of elements : 6
  66. Stream size : 221 Bytes (0%)
  67. Language : English
  68. Default : Yes
  69. Forced : Yes
复制代码


欢乐无限:任与史汀比的故事4k Happy.Happy.Joy.Joy.The.Ren.and.Stimpy.Story.2020.2160p.WEB-DL.x265.10bit.SDR.DD5.1.x265-4k电影下载

欢乐无限:任与史汀比的故事4k Happy.Happy.Joy.Joy.The.Ren.and.Stimpy.Story.2020.2160p.WEB-DL.x265.10bit.SDR.DD5.1.x265【9.14 GB】
[Hao4k]欢乐无限:任与史汀比的故事4k Happy.Happy.Joy.Joy.The.Ren.and.Stimpy.Story.torrent (23.56 KB)
回复

使用道具 举报

全部回复2

jzy878 发表于 2021-8-24 14:56:28

jzy878 2

2021-8-24 14:56:28

是史努皮狗吗
回复 支持 反对

使用道具 举报

yangy_75 发表于 2021-9-6 16:41:32

yangy_75 3

2021-9-6 16:41:32

感谢楼主分享!!!
回复 支持 反对

使用道具 举报

   发表回复

您需要登录后才可以回帖 登录 | 立即注册

返回列表 本版积分规则

  • 在线客服

  • 返回顶部