微博 微信

Hao4K影音

电影频道
电影封面:
片  名: 这里有一段时间4k
电影分类: 剧情 
国  家: 美国 
年  代: 2019年
分 辨 率: 4K(3840x2160)
电影格式: MKV|REMUX 
画质标准: SDR 
音质编码: Dolby Digital Audio 
电影声道: 5.1声道 
帧数/FPS: 23.976 帧
电影语言: 英文原版 
资源大小: 7.05 GB
导  演: Tim True
豆瓣评分: 5.6 分
中文字幕: -
剧情简介:  Terminally ill Anna returns to Oregon to reconnect with her estranged brother while simultaneously making the qiwan.cc heart-wrenching choice to end her life putting to use the Death with Dignity Act.
这里有一段时间4k Here.Awhile.2019.2160p.WEB-DL.x265.10bit.SDR.DD5.1.x265-4k电影信息
  1. Video
  2. ID : 1
  3. Format : HEVC
  4. Format/Info : High Efficiency Video Coding
  5. Format profile : Main 10@L5@High
  6. Codec ID : V_MPEGH/ISO/HEVC
  7. Duration : 1 h 22 min
  8. Bit rate : 11.9 Mb/s
  9. Width : 3 840 pixels
  10. Height : 1 916 pixels
  11. Display aspect ratio : 2.004
  12. Frame rate mode : Constant
  13. Frame rate : 23.976 FPS
  14. Color space : YUV
  15. Chroma subsampling : 4:2:0
  16. Bit depth : 10 bits
  17. Bits/(Pixel*Frame) : 0.067
  18. Stream size : 6.82 GiB (97%)
  19. Language : English
  20. Default : Yes
  21. Forced : No
  22. Color range : Limited
  23. Color primaries : BT.709
  24. Transfer characteristics : BT.709
  25. Matrix coefficients : BT.709

  26. Audio
  27. ID : 2
  28. Format : AC-3
  29. Format/Info : Audio Coding 3
  30. Commercial name : Dolby Digital
  31. Codec ID : A_AC3
  32. Duration : 1 h 22 min
  33. Bit rate mode : Constant
  34. Bit rate : 384 kb/s
  35. Channel(s) : 6 channels
  36. Channel layout : L R C LFE Ls Rs
  37. Sampling rate : 48.0 kHz
  38. Frame rate : 31.250 FPS (1536 SPF)
  39. Compression mode : Lossy
  40. Stream size : 225 MiB (3%)
  41. Language : English
  42. Service kind : Complete Main
  43. Default : Yes
  44. Forced : No

  45. Text
  46. ID : 3
  47. Format : UTF-8
  48. Codec ID : S_TEXT/UTF8
  49. Codec ID/Info : UTF-8 Plain Text
  50. Duration : 1 h 18 min
  51. Bit rate : 52 b/s
  52. Count of elements : 1068
  53. Stream size : 30.2 KiB (0%)
  54. Title : (SDH)
  55. Language : English
  56. Default : No
  57. Forced : No
复制代码

这里有一段时间4k Here.Awhile.2019.2160p.WEB-DL.x265.10bit.SDR.DD5.1.x265-4k电影下载

这里有一段时间4k Here.Awhile.2019.2160p.WEB-DL.x265.10bit.SDR.DD5.1.x265【7.05 GB】
[Hao4K]这里有一段时间4K Here.Awhile.2019.2160p.WEB-DL.x265.10bit.SDR.DD5.1.x265-.torrent (18.25 KB)
回复

使用道具 举报

全部回复3

小菜菜鸟 发表于 2021-8-27 19:53:40

小菜菜鸟 2

2021-8-27 19:53:40

这是标准的剧情片,有点压抑的情节。
回复 支持 反对

使用道具 举报

sugarjie 发表于 2021-9-5 13:22:52

sugarjie 3

2021-9-5 13:22:52

剧情片不一定看得懂,支持一下。
回复 支持 反对

使用道具 举报

yangy_75 发表于 2021-9-6 16:41:52

yangy_75 4

2021-9-6 16:41:52

感谢楼主分享!!!
回复 支持 反对

使用道具 举报

   发表回复

您需要登录后才可以回帖 登录 | 立即注册

返回列表 本版积分规则

  • 在线客服

  • 返回顶部