微博 微信

Hao4K影音

电影频道
电影封面:
片  名: 冰岛是最棒的地方4k
电影分类: 剧情 
国  家: 美国 
年  代: 2020年
分 辨 率: 4K(3840x2160)
电影格式: MKV|REMUX 
画质标准: SDR 
音质编码: Dolby Digital Audio 
电影声道: 5.1声道 
帧数/FPS: 24.000 帧
电影语言: 英文原版 
资源大小: 7.85 GB
导  演: Max Newsom
豆瓣评分: 3.7 分
中文字幕: -
剧情简介:  ICELAND IS BEST tells the story of Sigga, a 17 year-old girl trying to leave home in Iceland, and make her way to California.
冰岛是最棒的地方4k Iceland.Is.Best.2020.2160p.WEB-DL.x265.10bit.SDR.DD5.1.x265-4k电影信息
  1. Video
  2. ID : 1
  3. Format : HEVC
  4. Format/Info : High Efficiency Video Coding
  5. Format profile : Main 10@L5@High
  6. Codec ID : V_MPEGH/ISO/HEVC
  7. Duration : 1 h 30 min
  8. Bit rate : 12.0 Mb/s
  9. Width : 3 836 pixels
  10. Height : 1 600 pixels
  11. Display aspect ratio : 2.40:1
  12. Original display aspect ratio : 2.40:1
  13. Frame rate mode : Constant
  14. Frame rate : 24.000 FPS
  15. Color space : YUV
  16. Chroma subsampling : 4:2:0
  17. Bit depth : 10 bits
  18. Bits/(Pixel*Frame) : 0.081
  19. Stream size : 7.61 GiB (97%)
  20. Language : English
  21. Default : Yes
  22. Forced : No
  23. Color range : Limited
  24. Color primaries : BT.709
  25. Transfer characteristics : BT.709
  26. Matrix coefficients : BT.709

  27. Audio
  28. ID : 2
  29. Format : AC-3
  30. Format/Info : Audio Coding 3
  31. Commercial name : Dolby Digital
  32. Codec ID : A_AC3
  33. Duration : 1 h 30 min
  34. Bit rate mode : Constant
  35. Bit rate : 384 kb/s
  36. Channel(s) : 6 channels
  37. Channel layout : L R C LFE Ls Rs
  38. Sampling rate : 48.0 kHz
  39. Frame rate : 31.250 FPS (1536 SPF)
  40. Compression mode : Lossy
  41. Stream size : 250 MiB (3%)
  42. Language : English
  43. Service kind : Complete Main
  44. Default : Yes
  45. Forced : No

  46. Text #1
  47. ID : 3
  48. Format : UTF-8
  49. Codec ID : S_TEXT/UTF8
  50. Codec ID/Info : UTF-8 Plain Text
  51. Duration : 1 h 30 min
  52. Bit rate : 37 b/s
  53. Count of elements : 742
  54. Stream size : 24.9 KiB (0%)
  55. Title : (SDH)
  56. Language : English
  57. Default : No
  58. Forced : No

  59. Text #2
  60. ID : 4
  61. Format : UTF-8
  62. Codec ID : S_TEXT/UTF8
  63. Codec ID/Info : UTF-8 Plain Text
  64. Duration : 1 h 16 min
  65. Bit rate : 0 b/s
  66. Count of elements : 10
  67. Stream size : 186 Bytes (0%)
  68. Language : English
  69. Default : Yes
  70. Forced : Yes
复制代码


冰岛是最棒的地方4k Iceland.Is.Best.2020.2160p.WEB-DL.x265.10bit.SDR.DD5.1.x265-4k电影下载
冰岛是最棒的地方4k Iceland.Is.Best.2020.2160p.WEB-DL.x265.10bit.SDR.DD5.1.x265【7.85GB】
[Hao4k]冰岛是最棒的地方4k Iceland.Is.Best.2020.2160p.WEB-DL.x265.10bit.SDR.DD5.1.torrent (20.28 KB)
回复

使用道具 举报

全部回复6

西班牙屠户 发表于 2021-8-26 18:16:00

西班牙屠户 2

2021-8-26 18:16:00

没看过
准备下下来看看
回复 支持 反对

使用道具 举报

seacope 发表于 2021-9-2 18:42:30

seacope 3

2021-9-2 18:42:30

下来看看
回复 支持 反对

使用道具 举报

skyboy124602 发表于 2021-9-2 20:13:24

skyboy124602 4

2021-9-2 20:13:24

谢谢楼主,下来看看
回复 支持 反对

使用道具 举报

disair 发表于 2021-9-5 15:13:18

disair 5

2021-9-5 15:13:18

看着还挺有意思的,为啥评分这么低
回复 支持 反对

使用道具 举报

ljason 发表于 2021-9-5 23:09:53

ljason 6

2021-9-5 23:09:53

谢谢楼主无私分享
回复 支持 反对

使用道具 举报

houli988 发表于 2021-9-10 22:37:46

houli988 7

2021-9-10 22:37:46

谢谢楼主
回复 支持 反对

使用道具 举报

   发表回复

您需要登录后才可以回帖 登录 | 立即注册

返回列表 本版积分规则

  • 在线客服

  • 返回顶部