微博 微信

Hao4K影音

电影频道
电影封面:
片  名: 误闯杀机4k
电影分类: 惊悚 
国  家: 加拿大 
年  代: 2019年
分 辨 率: 4K(3840x2160)
电影格式: MKV|REMUX 
画质标准: SDR 
音质编码: Dolby Digital Audio 
电影声道: 5.1声道 
帧数/FPS: 23.976 帧
电影语言: 英文原版 
资源大小: 7.32 GB
导  演: Joe Zanetti
豆瓣评分: 5.2 分
中文字幕: /thread-61047-1-1.html
剧情简介: 当一个年轻女子的车在俄勒冈州抛锚时,她发现自己受一个偏执的阴谋理论家的摆布,她以为她是政府特工。
误闯杀机4k Killbird.2019.2160p.WEB-DL.x265.10bit.SDR.DD5.1.x265-4k电影信息
  1. Video
  2. ID : 1
  3. Format : HEVC
  4. Format/Info : High Efficiency Video Coding
  5. Format profile : Main 10@L5@High
  6. Codec ID : V_MPEGH/ISO/HEVC
  7. Duration : 1 h 24 min
  8. Bit rate : 12.0 Mb/s
  9. Width : 3 832 pixels
  10. Height : 2 068 pixels
  11. Display aspect ratio : 1.85:1
  12. Frame rate mode : Constant
  13. Frame rate : 23.976 FPS
  14. Color space : YUV
  15. Chroma subsampling : 4:2:0
  16. Bit depth : 10 bits
  17. Bits/(Pixel*Frame) : 0.063
  18. Stream size : 7.09 GiB (97%)
  19. Language : English
  20. Default : Yes
  21. Forced : No
  22. Color range : Limited
  23. Color primaries : BT.709
  24. Transfer characteristics : BT.709
  25. Matrix coefficients : BT.709

  26. Audio
  27. ID : 2
  28. Format : AC-3
  29. Format/Info : Audio Coding 3
  30. Commercial name : Dolby Digital
  31. Codec ID : A_AC3
  32. Duration : 1 h 24 min
  33. Bit rate mode : Constant
  34. Bit rate : 384 kb/s
  35. Channel(s) : 6 channels
  36. Channel layout : L R C LFE Ls Rs
  37. Sampling rate : 48.0 kHz
  38. Frame rate : 31.250 FPS (1536 SPF)
  39. Compression mode : Lossy
  40. Stream size : 233 MiB (3%)
  41. Language : English
  42. Service kind : Complete Main
  43. Default : Yes
  44. Forced : No

  45. Text
  46. ID : 3
  47. Format : UTF-8
  48. Codec ID : S_TEXT/UTF8
  49. Codec ID/Info : UTF-8 Plain Text
  50. Duration : 1 h 20 min
  51. Bit rate : 60 b/s
  52. Count of elements : 1113
  53. Stream size : 35.4 KiB (0%)
  54. Title : (SDH)
  55. Language : English
  56. Default : No
  57. Forced : No
复制代码


误闯杀机4k Killbird.2019.2160p.WEB-DL.x265.10bit.SDR.DD5.1.x265-4k电影下载

误闯杀机4k Killbird.2019.2160p.WEB-DL.x265.10bit.SDR.DD5.1.x265【7.32GB】
[Hao4k]误闯杀机4k Killbird.2019.2160p.WEB-DL.x265.10bit.SDR.DD5.1.x265-ROCCaT.torrent (18.95 KB)
回复

使用道具 举报

全部回复11

雨中阳光9022 发表于 2021-8-24 22:08:33

雨中阳光9022 2

2021-8-24 22:08:33

我能发表回复吗
回复 支持 反对

使用道具 举报

QQ_1C652F 发表于 2021-8-25 12:17:23

QQ_1C652F 3

2021-8-25 12:17:23

谢谢楼主无私分享
回复 支持 反对

使用道具 举报

dzstone123 发表于 2021-8-25 12:58:37

dzstone123 4

2021-8-25 12:58:37

什么鸟?看看呗
回复 支持 反对

使用道具 举报

vinsen 发表于 2021-8-26 14:00:53

vinsen 5

2021-8-26 14:00:53

看来都是不了解的资源
回复 支持 反对

使用道具 举报

zsad 发表于 2021-8-28 15:04:38

zsad 6

2021-8-28 15:04:38

谢谢分享
回复 支持 反对

使用道具 举报

kasainuoc 发表于 2021-9-1 13:57:09 Hao4K手机版

kasainuoc 7

2021-9-1 13:57:09

谢谢分享
回复 支持 反对

使用道具 举报

czl800 发表于 2021-9-3 09:05:53

czl800 8

2021-9-3 09:05:53

谢谢资源
回复 支持 反对

使用道具 举报

sugarjie 发表于 2021-9-5 13:22:17

sugarjie 9

2021-9-5 13:22:17

感谢分享,支持一下楼主。
回复 支持 反对

使用道具 举报

文哥550 发表于 2021-9-6 06:03:29

文哥550 10

2021-9-6 06:03:29

第一次回复,给这里了。
回复 支持 反对

使用道具 举报

yangy_75 发表于 2021-9-6 16:42:15

yangy_75 11

2021-9-6 16:42:15

感谢楼主分享!!!
回复 支持 反对

使用道具 举报

wstxws 发表于 2021-9-8 21:23:22

wstxws 12

2021-9-8 21:23:22

感谢分享
回复 支持 反对

使用道具 举报

   发表回复

您需要登录后才可以回帖 登录 | 立即注册

返回列表 本版积分规则

  • 在线客服

  • 返回顶部