微博 微信

Hao4K影音

电影频道
电影封面:
片  名: 马克斯与我4k
电影分类: 剧情 爱情片 
国  家: 美国 
年  代: 2020年
分 辨 率: 4K(3840x2160)
电影格式: MKV|REMUX 
画质标准: SDR 
音质编码: Dolby Digital Audio 
电影声道: 5.1声道 
帧数/FPS: 23.976 帧
电影语言: 英文原版 
资源大小: 15.40 GB
导  演: Claire Andrew
豆瓣评分: 6.4 分
中文字幕: -
剧情简介:  A coming of age story about an awkward teenage boy who falls in love with the girl next door, who he soon discovers passed away the year before from Cystic Fibrosis, and he\'s in love...with a ghost.
马克斯与我4k Max.and.Me.2020.2160p.WEB-DL.x265.10bit.SDR.DD5.1.x265-4k电影信息
  1. Video
  2. ID : 1
  3. Format : HEVC
  4. Format/Info : High Efficiency Video Coding
  5. Format profile : Main 10@L5@High
  6. Codec ID : V_MPEGH/ISO/HEVC
  7. Duration : 1 h 43 min
  8. Bit rate : 20.8 Mb/s
  9. Width : 3 838 pixels
  10. Height : 1 606 pixels
  11. Display aspect ratio : 2.40:1
  12. Frame rate mode : Constant
  13. Frame rate : 23.976 FPS
  14. Color space : YUV
  15. Chroma subsampling : 4:2:0
  16. Bit depth : 10 bits
  17. Bits/(Pixel*Frame) : 0.141
  18. Stream size : 15.1 GiB (98%)
  19. Language : English
  20. Default : Yes
  21. Forced : No
  22. Color range : Limited
  23. Color primaries : BT.709
  24. Transfer characteristics : BT.709
  25. Matrix coefficients : BT.709

  26. Audio
  27. ID : 2
  28. Format : AC-3
  29. Format/Info : Audio Coding 3
  30. Commercial name : Dolby Digital
  31. Codec ID : A_AC3
  32. Duration : 1 h 43 min
  33. Bit rate mode : Constant
  34. Bit rate : 384 kb/s
  35. Channel(s) : 6 channels
  36. Channel layout : L R C LFE Ls Rs
  37. Sampling rate : 48.0 kHz
  38. Frame rate : 31.250 FPS (1536 SPF)
  39. Compression mode : Lossy
  40. Stream size : 286 MiB (2%)
  41. Language : English
  42. Service kind : Complete Main
  43. Default : Yes
  44. Forced : No

  45. Text
  46. ID : 3
  47. Format : UTF-8
  48. Codec ID : S_TEXT/UTF8
  49. Codec ID/Info : UTF-8 Plain Text
  50. Duration : 1 h 40 min
  51. Bit rate : 71 b/s
  52. Count of elements : 1640
  53. Stream size : 52.3 KiB (0%)
  54. Title : (SDH)
  55. Language : English
  56. Default : No
  57. Forced : No
复制代码


马克斯与我4k Max.and.Me.2020.2160p.WEB-DL.x265.10bit.SDR.DD5.1.x265-4k电影下载
马克斯与我4k Max.and.Me.2020.2160p.WEB-DL.x265.10bit.SDR.DD5.1.x265【15.40 GB】
[Hao4k]马克斯与我4k Max.and.Me.2020.2160p.WEB-DL.x265.10bit.SDR.DD5.1.x265-ROCCaT.torrent (19.89 KB)
回复

使用道具 举报

全部回复5

adamshoo 发表于 2021-8-24 15:04:03

adamshoo 2

2021-8-24 15:04:03

很好,支持一下
回复 支持 反对

使用道具 举报

waj 发表于 2021-8-26 16:19:12 Hao4K手机版

waj 3

2021-8-26 16:19:12

怎么这么大的文件,装不下装不下,怎么办呢??????????
回复 支持 反对

使用道具 举报

张超522 发表于 2021-8-31 15:30:51

张超522 4

2021-8-31 15:30:51

waj 发表于 2021-8-26 16:19
怎么这么大的文件,装不下装不下,怎么办呢??????????

换电脑
回复 支持 反对

使用道具 举报

stadtpeking 发表于 2021-9-3 10:48:45

stadtpeking 5

2021-9-3 10:48:45

这个不错!支持一下!!
回复 支持 反对

使用道具 举报

sugarjie 发表于 2021-9-5 13:21:28

sugarjie 6

2021-9-5 13:21:28

是爱情片吗?支持一下!
回复 支持 反对

使用道具 举报

   发表回复

您需要登录后才可以回帖 登录 | 立即注册

返回列表 本版积分规则

  • 在线客服

  • 返回顶部