微博 微信

Hao4K影音

电影频道
电影封面:
片  名: Stars.Fell.on.Alabama
电影分类: 剧情 爱情片 
国  家: 美国 
年  代: 2021年
分 辨 率: 4K(3840x2160)
电影格式: MKV|REMUX 
画质标准: SDR 
音质编码: Dolby Digital Audio 
电影声道: 5.1声道 
帧数/FPS: 23.976 帧
电影语言:  
资源大小: 8.90 GB
导  演: V.W. Scheich
豆瓣评分: 5.5 分
中文字幕: -
剧情简介: A Hollywood agent returns to his Alabama hometown for 15 year high school reunion. His old schoolmates think, he\'s dating and bringing a famous movie star with him. He asks a cute client for a favor.
  —Scott Filtenborg
  Successful Hollywood agent Bryce Dixon is returning to Alabama for the first time in 15 years for his high school reunion. When he learns he\'s the only one of his friends who isn\'t married with children, he convinces his client, starlet Madison Belle, to pretend to be his girlfriend. But he soon learns that success has different meanings, and romance may be closer than he thinks.
Stars.Fell.on.Alabama.2021.2160p.WEB-DL.x265.10bit.SDR.DD5.1.x265-4k电影信息
  1. Video
  2. ID : 1
  3. Format : HEVC
  4. Format/Info : High Efficiency Video Coding
  5. Format profile : Main 10@L5@High
  6. Codec ID : V_MPEGH/ISO/HEVC
  7. Duration : 1 h 43 min
  8. Bit rate : 11.9 Mb/s
  9. Width : 3 838 pixels
  10. Height : 1 602 pixels
  11. Display aspect ratio : 2.40:1
  12. Frame rate mode : Constant
  13. Frame rate : 23.976 FPS
  14. Color space : YUV
  15. Chroma subsampling : 4:2:0
  16. Bit depth : 10 bits
  17. Bits/(Pixel*Frame) : 0.081
  18. Stream size : 8.62 GiB (97%)
  19. Language : English
  20. Default : Yes
  21. Forced : No
  22. Color range : Limited
  23. Color primaries : BT.709
  24. Transfer characteristics : BT.709
  25. Matrix coefficients : BT.709

  26. Audio
  27. ID : 2
  28. Format : AC-3
  29. Format/Info : Audio Coding 3
  30. Commercial name : Dolby Digital
  31. Codec ID : A_AC3
  32. Duration : 1 h 43 min
  33. Bit rate mode : Constant
  34. Bit rate : 384 kb/s
  35. Channel(s) : 6 channels
  36. Channel layout : L R C LFE Ls Rs
  37. Sampling rate : 48.0 kHz
  38. Frame rate : 31.250 FPS (1536 SPF)
  39. Compression mode : Lossy
  40. Stream size : 284 MiB (3%)
  41. Language : English
  42. Service kind : Complete Main
  43. Default : Yes
  44. Forced : No

  45. Text #1
  46. ID : 3
  47. Format : UTF-8
  48. Codec ID : S_TEXT/UTF8
  49. Codec ID/Info : UTF-8 Plain Text
  50. Duration : 1 h 42 min
  51. Bit rate : 76 b/s
  52. Count of elements : 2111
  53. Stream size : 57.3 KiB (0%)
  54. Title : (SDH)
  55. Language : English
  56. Default : No
  57. Forced : No

  58. Text #2
  59. ID : 4
  60. Format : UTF-8
  61. Codec ID : S_TEXT/UTF8
  62. Codec ID/Info : UTF-8 Plain Text
  63. Duration : 1 h 41 min
  64. Bit rate : 71 b/s
  65. Count of elements : 1743
  66. Stream size : 53.6 KiB (0%)
  67. Language : French
  68. Default : No
  69. Forced : No

  70. Text #3
  71. ID : 5
  72. Format : UTF-8
  73. Codec ID : S_TEXT/UTF8
  74. Codec ID/Info : UTF-8 Plain Text
  75. Duration : 1 h 41 min
  76. Bit rate : 64 b/s
  77. Count of elements : 1758
  78. Stream size : 48.1 KiB (0%)
  79. Language : Italian
  80. Default : No
  81. Forced : No

  82. Text #4
  83. ID : 6
  84. Format : UTF-8
  85. Codec ID : S_TEXT/UTF8
  86. Codec ID/Info : UTF-8 Plain Text
  87. Duration : 1 h 41 min
  88. Bit rate : 61 b/s
  89. Count of elements : 1683
  90. Stream size : 46.1 KiB (0%)
  91. Language : Spanish
  92. Default : No
  93. Forced : No
复制代码

Stars.Fell.on.Alabama.2021.2160p.WEB-DL.x265.10bit.SDR.DD5.1.x265-4k电影下载

Stars.Fell.on.Alabama.2021.2160p.WEB-DL.x265.10bit.SDR.DD5.1.x265【8.90GB】
[Hao4k]Stars.Fell.on.Alabama.2021.2160p.WEB-DL.x265.10bit.SDR.DD5.1.x265-ROCCaT.torrent (22.9 KB)
回复

使用道具 举报

全部回复8

adamshoo 发表于 2021-8-24 14:54:28

adamshoo 2

2021-8-24 14:54:28

挺不错,支持一下
回复 支持 反对

使用道具 举报

leexeean 发表于 2021-8-24 14:57:13

leexeean 3

2021-8-24 14:57:13

支持一下
回复 支持 反对

使用道具 举报

QQ_1C652F 发表于 2021-8-25 12:16:51

QQ_1C652F 4

2021-8-25 12:16:51

谢谢楼主无私分享
回复 支持 反对

使用道具 举报

wushenggong1314 发表于 2021-8-25 15:44:38

wushenggong1314 5

2021-8-25 15:44:38

多多支持hao4K,谢谢分享
回复 支持 反对

使用道具 举报

13700998870 发表于 2021-8-26 10:40:21

13700998870 6

2021-8-26 10:40:21

感谢楼主
回复 支持 反对

使用道具 举报

jonva 发表于 2021-8-27 13:11:38

jonva 7

2021-8-27 13:11:38

谢谢,多谢分享
回复 支持 反对

使用道具 举报

zmjie 发表于 2021-9-5 16:13:58

zmjie 8

2021-9-5 16:13:58

支持一下
回复 支持 反对

使用道具 举报

yaow2006 发表于 2021-9-8 21:00:30

yaow2006 9

2021-9-8 21:00:30

郎才女貌啊,可惜评分这么低
回复 支持 反对

使用道具 举报

   发表回复

您需要登录后才可以回帖 登录 | 立即注册

返回列表 本版积分规则

  • 在线客服

  • 返回顶部