微博 微信

Hao4K影音

电影频道
电影封面:
片  名: The.House.in.Between
电影分类: 恐怖 惊悚 纪录片 
国  家: 美国 
年  代: 2020年
分 辨 率: 4K(3840x2160)
电影格式: MKV|REMUX 
画质标准: SDR 
音质编码: Dolby Digital Audio 
电影声道: 5.1声道 
帧数/FPS: 23.976 帧
电影语言: 英文原版 
资源大小: 7.03 GB
导  演: Steve Gonsalves / Kendall Whelpton
豆瓣评分: 4.6 分
中文字幕: -
剧情简介: A beautiful documentary telling the real story of a homeowner living with a haunting. Bridging the paranormal, real science and the human experience this documentary shows a detailed look at what could be the most haunted house in America.
The.House.in.Between.2020.2160p.WEB-DL.x265.10bit.SDR.DD5.1.x265电影信息
  1. Video
  2. ID : 1
  3. Format : HEVC
  4. Format/Info : High Efficiency Video Coding
  5. Format profile : Main 10@L5@High
  6. Codec ID : V_MPEGH/ISO/HEVC
  7. Duration : 1 h 20 min
  8. Bit rate : 12.1 Mb/s
  9. Width : 3 838 pixels
  10. Height : 2 020 pixels
  11. Display aspect ratio : 1.900
  12. Frame rate mode : Constant
  13. Frame rate : 23.976 FPS
  14. Color space : YUV
  15. Chroma subsampling : 4:2:0
  16. Bit depth : 10 bits
  17. Bits/(Pixel*Frame) : 0.065
  18. Stream size : 6.81 GiB (97%)
  19. Language : English
  20. Default : Yes
  21. Forced : No
  22. Color range : Limited
  23. Color primaries : BT.709
  24. Transfer characteristics : BT.709
  25. Matrix coefficients : BT.709

  26. Audio
  27. ID : 2
  28. Format : AC-3
  29. Format/Info : Audio Coding 3
  30. Commercial name : Dolby Digital
  31. Codec ID : A_AC3
  32. Duration : 1 h 20 min
  33. Bit rate mode : Constant
  34. Bit rate : 384 kb/s
  35. Channel(s) : 6 channels
  36. Channel layout : L R C LFE Ls Rs
  37. Sampling rate : 48.0 kHz
  38. Frame rate : 31.250 FPS (1536 SPF)
  39. Compression mode : Lossy
  40. Stream size : 222 MiB (3%)
  41. Language : English
  42. Service kind : Complete Main
  43. Default : Yes
  44. Forced : No

  45. Text #1
  46. ID : 3
  47. Format : UTF-8
  48. Codec ID : S_TEXT/UTF8
  49. Codec ID/Info : UTF-8 Plain Text
  50. Duration : 1 h 19 min
  51. Bit rate : 92 b/s
  52. Count of elements : 1368
  53. Stream size : 54.3 KiB (0%)
  54. Title : (SDH)
  55. Language : English
  56. Default : No
  57. Forced : No

  58. Text #2
  59. ID : 4
  60. Format : UTF-8
  61. Codec ID : S_TEXT/UTF8
  62. Codec ID/Info : UTF-8 Plain Text
  63. Duration : 51 min 16 s
  64. Bit rate : 2 b/s
  65. Count of elements : 26
  66. Stream size : 948 Bytes (0%)
  67. Language : English
  68. Default : Yes
  69. Forced : Yes
复制代码


The.House.in.Between.2020.2160p.WEB-DL.x265.10bit.SDR.DD5.1.x265电影下载

The.House.in.Between.2020.2160p.WEB-DL.x265.10bit.SDR.DD5.1.x265【7.03 GB】
[Hao4k]The.House.in.Between.2020.2160p.WEB-DL.x265.10bit.SDR.DD5.1.x265-ROCCaT.torrent (18.22 KB)
回复

使用道具 举报

全部回复9

burningbla 发表于 2021-8-24 22:35:30

burningbla 2

2021-8-24 22:35:30

还有这么低分的纪录片,
回复 支持 反对

使用道具 举报

WOAI4KDY 发表于 2021-8-25 08:35:44

WOAI4KDY 3

2021-8-25 08:35:44

可不可以大概说明一下纪录的是那方面的内容呢,让人一头雾水也不好作决定啊
回复 支持 反对

使用道具 举报

liyun80000 发表于 2021-8-25 16:44:12

liyun80000 4

2021-8-25 16:44:12

一直觉得楼主的品味不错
回复 支持 反对

使用道具 举报

waj 发表于 2021-8-26 16:18:46 Hao4K手机版

waj 5

2021-8-26 16:18:46

怎么这么大的文件,装不下装不下,怎么办呢??????????
回复 支持 反对

使用道具 举报

renq0123 发表于 2021-8-27 20:14:47

renq0123 6

2021-8-27 20:14:47

有没有中文字幕?
回复 支持 反对

使用道具 举报

17774419373 发表于 2021-8-29 18:50:16

17774419373 7

2021-8-29 18:50:16

没有中文字幕,自己到网上找找。
回复 支持 反对

使用道具 举报

A13382222676 发表于 2021-8-31 08:18:24 Hao4K手机版

A13382222676 8

2021-8-31 08:18:24

最喜欢看纪录片
回复 支持 反对

使用道具 举报

sugarjie 发表于 2021-9-5 13:20:07

sugarjie 9

2021-9-5 13:20:07

没有中文字幕这个看起来太辛苦了。支持一下。
回复 支持 反对

使用道具 举报

micj 发表于 2021-9-8 21:00:08

micj 10

2021-9-8 21:00:08

这是一部美丽的纪录片,讲述了一个房主和一个闹鬼住在一起的真实故事。这部纪录片将超自然、真实的科学和人类的体验联系起来,详细地展示了美国最闹鬼的房子。
回复 支持 反对

使用道具 举报

   发表回复

您需要登录后才可以回帖 登录 | 立即注册

返回列表 本版积分规则

  • 在线客服

  • 返回顶部