微博 微信

Hao4K影音

电视剧频道
电视剧封面:
电视剧名: 我的天才女友 第二季4k
年  代: 2020  
国  家: 美国
类  别: 剧情 
语  言: 英语
字  幕: 英文原版
上映日期: 2020-03-16
文件格式: mkv    
视频效果: 4K(3840x2160)    
资源大小: 53.99 GB
片  长: 60 分钟
导  演: 萨维里奥·科斯坦佐 / 阿莉切·罗尔瓦赫尔
剧情简介:  一晃眼多年过去,爱莲娜(玛格丽塔·马祖可 Margherita Mazzucco 饰)和莉拉(盖娅·吉拉切 Gaia Girace 饰)都长大成人。莉拉嫁给了斯特凡诺(乔万尼·阿穆拉 Giovanni Amura 饰)开始了并不幸福的婚后生活,而爱莲娜则进入大学,前往比萨继续深造。 在海边度假时,两个女孩同她们的童年玩伴尼诺(弗朗西斯·塞尔皮科 Francesco Serpico 饰)重逢了,爱莲娜依然无法抗拒尼诺所散发出来的魅力,而尼诺似乎对莉拉更加的感兴趣。果不其然,尼诺和莉拉走到了一起。爱尼诺至深的莉拉决定离开斯特凡诺,和尼诺私奔,但眼前的这个男人,真的要比斯特凡诺更加优秀吗?当莉拉的腹中怀上了孩子后,尼诺选择了离开她,无家可归的莉拉不得不再次向斯特凡诺低头。
那不勒斯故事(台) / My Brilliant Friend/我的天才女友 第二季4k My.Brilliant.Friend.S02.ITALIAN.2160p.WEBRip.DDP5.1.x265-4k美剧信息
  1. Video
  2. ID : 1
  3. Format : HEVC
  4. Format/Info : High Efficiency Video Coding
  5. Format profile : Main 10@L5@High
  6. HDR format : SMPTE ST 2086, HDR10 compatible
  7. Codec ID : V_MPEGH/ISO/HEVC
  8. Duration : 1 h 7 min
  9. Bit rate : 16.0 Mb/s
  10. Width : 3 840 pixels
  11. Height : 2 160 pixels
  12. Display aspect ratio : 16:9
  13. Frame rate mode : Constant
  14. Frame rate : 25.000 FPS
  15. Color space : YUV
  16. Chroma subsampling : 4:2:0
  17. Bit depth : 10 bits
  18. Bits/(Pixel*Frame) : 0.077
  19. Stream size : 7.56 GiB (96%)
  20. Writing library : ATEME Titan File 3.9.4 (4.9.4.0)
  21. Default : Yes
  22. Forced : No
  23. Color range : Limited
  24. Color primaries : BT.709
  25. Transfer characteristics : BT.709
  26. Matrix coefficients : BT.709
  27. Mastering display color primaries : R: x=0.169300 y=0.269460, G: x=1.080400 y=0.129720, B: x=0.341700 y=0.014700, White point: x=0.567780 y=0.210840
  28. Mastering display luminance : min: 252860.5033 cd/m2, max: 22632.9868 cd/m2
  29. Maximum Content Light Level : 17043 cd/m2
  30. Maximum Frame-Average Light Level : 55474 cd/m2
  31. SEI_rbsp_stop_one_bit : Missing

  32. Audio
  33. ID : 2
  34. Format : AC-3
  35. Format/Info : Audio Coding 3
  36. Commercial name : Dolby Digital
  37. Codec ID : A_AC3
  38. Duration : 1 h 7 min
  39. Bit rate mode : Constant
  40. Bit rate : 640 kb/s
  41. Channel(s) : 6 channels
  42. Channel layout : L R C LFE Ls Rs
  43. Sampling rate : 48.0 kHz
  44. Frame rate : 31.250 FPS (1536 SPF)
  45. Compression mode : Lossy
  46. Delay relative to video : 24 ms
  47. Stream size : 309 MiB (4%)
  48. Title : Italian
  49. Language : Italian
  50. Service kind : Complete Main
  51. Default : Yes
  52. Forced : No

  53. Text #1
  54. ID : 3
  55. Format : UTF-8
  56. Codec ID : S_TEXT/UTF8
  57. Codec ID/Info : UTF-8 Plain Text
  58. Duration : 1 h 6 min
  59. Bit rate : 53 b/s
  60. Count of elements : 652
  61. Stream size : 26.0 KiB (0%)
  62. Language : English
  63. Default : Yes
  64. Forced : No

  65. Text #2
  66. ID : 4
  67. Format : UTF-8
  68. Codec ID : S_TEXT/UTF8
  69. Codec ID/Info : UTF-8 Plain Text
  70. Duration : 1 h 6 min
  71. Bit rate : 92 b/s
  72. Count of elements : 681
  73. Stream size : 45.2 KiB (0%)
  74. Language : Russian
  75. Default : No
  76. Forced : No

  77. Text #3
  78. ID : 5
  79. Format : UTF-8
  80. Codec ID : S_TEXT/UTF8
  81. Codec ID/Info : UTF-8 Plain Text
  82. Duration : 1 h 6 min
  83. Bit rate : 51 b/s
  84. Count of elements : 871
  85. Stream size : 24.9 KiB (0%)
  86. Language : French
  87. Default : No
  88. Forced : No
复制代码

那不勒斯故事(台) / My Brilliant Friend/我的天才女友 第二季4k My.Brilliant.Friend.S02.ITALIAN.2160p.WEBRip.DDP5.1.x265-4k美剧下载

我的天才女友 第二季4k My.Brilliant.Friend.S02.ITALIAN.2160p.WEBRip.DDP5.1.x265【53.99 GB】
[Hao4k]我的天才女友 第二季4k My.Brilliant.Friend.S02.ITALIAN.2160p.WEBRip.DDP5.1.torrent (68.77 KB)
回复

使用道具 举报

全部回复3

littlebird 发表于 2021-8-24 20:05:35

littlebird 2

2021-8-24 20:05:35

那不勒斯四部曲,小说一般般,比较平淡,站在第一人称讲第三人称的故事
回复 支持 反对

使用道具 举报

吴摔锅 发表于 2021-8-28 16:26:34

吴摔锅 3

2021-8-28 16:26:34

一直找不到4k的字幕。和1080的不匹配。
回复 支持 反对

使用道具 举报

大头猫米 发表于 2021-9-4 09:35:49

大头猫米 4

2021-9-4 09:35:49

吴摔锅 发表于 2021-8-28 16:26
一直找不到4k的字幕。和1080的不匹配。

是啊.不匹配..怎么办呢..
回复 支持 反对

使用道具 举报

   发表回复

您需要登录后才可以回帖 登录 | 立即注册

返回列表 本版积分规则

  • 在线客服

  • 返回顶部