微博 微信

Hao4K影音

电影频道
电影封面:
片  名: 幸运日4k
电影分类: 动作 犯罪 惊悚 喜剧 
国  家: 法国 加拿大 
年  代: 2019年
分 辨 率: 4K(3840x2160)
电影格式: MKV|REMUX 
画质标准: SDR 
音质编码: DTS-HD Master Audio 
电影声道: 5.1声道 
帧数/FPS: 23.976 帧
电影语言: 英文原版 
资源大小: 11.06 GB
导  演: 罗杰·阿夫瑞
豆瓣评分: 5.7 分
中文字幕: /thread-61130-1-1.html
剧情简介: 故事聚焦一位有前科者,他被克里斯平·格洛弗扮演的变态杀手所追踪。
杀手欢乐送(台)/幸运日4k Lucky.Day.2019.2160p.WEB-DL.x265.10bit.SDR.DTS-HD.MA.5.1-4k电影信息
  1. Video
  2. ID : 1
  3. Format : HEVC
  4. Format/Info : High Efficiency Video Coding
  5. Format profile : Main 10@L5@High
  6. Codec ID : V_MPEGH/ISO/HEVC
  7. Duration : 1 h 39 min
  8. Bit rate : 12.1 Mb/s
  9. Width : 3 828 pixels
  10. Height : 1 588 pixels
  11. Display aspect ratio : 2.40:1
  12. Frame rate mode : Constant
  13. Frame rate : 23.976 FPS
  14. Color space : YUV
  15. Chroma subsampling : 4:2:0
  16. Bit depth : 10 bits
  17. Bits/(Pixel*Frame) : 0.083
  18. Stream size : 8.39 GiB (76%)
  19. Language : English
  20. Default : Yes
  21. Forced : No
  22. Color range : Limited
  23. Color primaries : BT.709
  24. Transfer characteristics : BT.709
  25. Matrix coefficients : BT.709

  26. Audio #1
  27. ID : 2
  28. Format : DTS XLL
  29. Format/Info : Digital Theater Systems
  30. Commercial name : DTS-HD Master Audio
  31. Codec ID : A_DTS
  32. Duration : 1 h 39 min
  33. Bit rate mode : Variable
  34. Bit rate : 3 426 kb/s
  35. Channel(s) : 6 channels
  36. Channel layout : C L R Ls Rs LFE
  37. Sampling rate : 48.0 kHz
  38. Frame rate : 93.750 FPS (512 SPF)
  39. Bit depth : 24 bits
  40. Compression mode : Lossless
  41. Stream size : 2.37 GiB (21%)
  42. Title : DTS-HD MA 5.1
  43. Language : English
  44. Default : Yes
  45. Forced : No

  46. Audio #2
  47. ID : 3
  48. Format : AC-3
  49. Format/Info : Audio Coding 3
  50. Commercial name : Dolby Digital
  51. Codec ID : A_AC3
  52. Duration : 1 h 39 min
  53. Bit rate mode : Constant
  54. Bit rate : 384 kb/s
  55. Channel(s) : 6 channels
  56. Channel layout : L R C LFE Ls Rs
  57. Sampling rate : 48.0 kHz
  58. Frame rate : 31.250 FPS (1536 SPF)
  59. Compression mode : Lossy
  60. Stream size : 273 MiB (2%)
  61. Title : DD 5.1
  62. Language : English
  63. Service kind : Complete Main
  64. Default : No
  65. Forced : No

  66. Text #1
  67. ID : 4
  68. Format : UTF-8
  69. Codec ID : S_TEXT/UTF8
  70. Codec ID/Info : UTF-8 Plain Text
  71. Duration : 52 min 55 s
  72. Bit rate : 5 b/s
  73. Count of elements : 93
  74. Stream size : 2.05 KiB (0%)
  75. Language : English
  76. Default : No
  77. Forced : Yes

  78. Text #2
  79. ID : 5
  80. Format : UTF-8
  81. Codec ID : S_TEXT/UTF8
  82. Codec ID/Info : UTF-8 Plain Text
  83. Duration : 1 h 37 min
  84. Bit rate : 58 b/s
  85. Count of elements : 1323
  86. Stream size : 41.9 KiB (0%)
  87. Title : (SDH)
  88. Language : English
  89. Default : No
  90. Forced : No

  91. Text #3
  92. ID : 6
  93. Format : PGS
  94. Muxing mode : zlib
  95. Codec ID : S_HDMV/PGS
  96. Codec ID/Info : Picture based subtitle format used on BDs/HD-DVDs
  97. Duration : 1 h 37 min
  98. Bit rate : 40.0 kb/s
  99. Count of elements : 2925
  100. Stream size : 27.8 MiB (0%)
  101. Title : English (SDH)
  102. Language : English
  103. Default : No
  104. Forced : No

  105. Text #4
  106. ID : 7
  107. Format : PGS
  108. Muxing mode : zlib
  109. Codec ID : S_HDMV/PGS
  110. Codec ID/Info : Picture based subtitle format used on BDs/HD-DVDs
  111. Duration : 1 h 37 min
  112. Bit rate : 31.2 kb/s
  113. Count of elements : 2774
  114. Stream size : 21.7 MiB (0%)
  115. Title : Spanish (Latin American)
  116. Language : Spanish
  117. Default : No
  118. Forced : No

  119. Menu
  120. 00:00:00.000 : Chapter 01
  121. 00:06:02.070 : Chapter 02
  122. 00:10:49.649 : Chapter 03
  123. 00:18:16.846 : Chapter 04
  124. 00:23:41.837 : Chapter 05
  125. 00:30:44.551 : Chapter 06
  126. 00:37:38.131 : Chapter 07
  127. 00:43:59.554 : Chapter 08
  128. 00:48:35.412 : Chapter 09
  129. 00:53:35.337 : Chapter 10
  130. 01:00:05.519 : Chapter 11
  131. 01:07:10.443 : Chapter 12
  132. 01:11:08.222 : Chapter 13
  133. 01:17:25.140 : Chapter 14
  134. 01:24:48.583 : Chapter 15
  135. 01:29:50.594 : Chapter 16
复制代码

杀手欢乐送(台)/幸运日4k Lucky.Day.2019.2160p.WEB-DL.x265.10bit.SDR.DTS-HD.MA.5.1-4k电影下载

幸运日4k Lucky.Day.2019.2160p.WEB-DL.x265.10bit.SDR.DTS-HD.MA.5.1【11.06 GB】
[Haok]幸运日4k Lucky.Day.2019.2160p.WEB-DL.x265.10bit.SDR.DTS-HD.MA.5.1-SWTYBLZ.torrent (14.48 KB)
回复

使用道具 举报

全部回复8

zsad 发表于 2021-8-27 12:51:57

zsad 2

2021-8-27 12:51:57


谢谢共享
回复 支持 反对

使用道具 举报

一个浪子 发表于 2021-8-27 17:35:42

一个浪子 3

2021-8-27 17:35:42

是部好片!
回复 支持 反对

使用道具 举报

老鼠响叮当燚燚 发表于 2021-8-27 18:25:04

老鼠响叮当燚燚 4

2021-8-27 18:25:04

谢谢楼主发片分享
回复 支持 反对

使用道具 举报

aa22057166 发表于 2021-8-28 10:52:42

aa22057166 5

2021-8-28 10:52:42

这个不错  谢谢楼主发片分享
回复 支持 反对

使用道具 举报

黃昏寄你一場夢 发表于 2021-8-29 18:38:35 Hao4K手机版

黃昏寄你一場夢 6

2021-8-29 18:38:35

谢谢分享
回复 支持 反对

使用道具 举报

shcnbzjz 发表于 2021-9-1 07:49:09

shcnbzjz 7

2021-9-1 07:49:09

看看幸运日也沾沾幸运
回复 支持 反对

使用道具 举报

sugarjie 发表于 2021-9-5 13:13:56

sugarjie 8

2021-9-5 13:13:56

这种类型的片子属于爆米花电影,支持一下!
回复 支持 反对

使用道具 举报

yemoke 发表于 2021-9-6 08:20:18

yemoke 9

2021-9-6 08:20:18

希望每天都是我们的幸运日
回复 支持 反对

使用道具 举报

   发表回复

您需要登录后才可以回帖 登录 | 立即注册

返回列表 本版积分规则

  • 在线客服

  • 返回顶部