微博 微信

Hao4K影音

电影频道
电影封面:
片  名: 马丁·路德·金与联邦调查局4k
电影分类: 纪录片 
国  家: 美国 
年  代: 2020年
分 辨 率: 4K(3840x2160)
电影格式: MKV|REMUX 
画质标准: SDR 
音质编码: DTS-HD Master Audio 
电影声道: 5.1声道 
帧数/FPS: 23.976 帧
电影语言: 英文原版 
资源大小: 10.41 GB
导  演: Sam Pollard
豆瓣评分: 6.9 分
中文字幕: -
剧情简介: -
马丁·路德·金与联邦调查局4k MLK.FBI.2020.2160p.WEB-DL.x265.10bit.SDR.DTS-HD.MA.5.1-4k纪录片信息
  1. Video
  2. ID : 1
  3. Format : HEVC
  4. Format/Info : High Efficiency Video Coding
  5. Format profile : Main 10@L5@High
  6. Codec ID : V_MPEGH/ISO/HEVC
  7. Duration : 1 h 46 min
  8. Bit rate : 11.8 Mb/s
  9. Width : 3 840 pixels
  10. Height : 2 012 pixels
  11. Display aspect ratio : 1.909
  12. Frame rate mode : Constant
  13. Frame rate : 23.976 FPS
  14. Color space : YUV
  15. Chroma subsampling : 4:2:0
  16. Bit depth : 10 bits
  17. Bits/(Pixel*Frame) : 0.064
  18. Stream size : 8.75 GiB (84%)
  19. Language : English
  20. Default : Yes
  21. Forced : No
  22. Color range : Limited
  23. Color primaries : BT.709
  24. Transfer characteristics : BT.709
  25. Matrix coefficients : BT.709

  26. Audio #1
  27. ID : 2
  28. Format : DTS XLL
  29. Format/Info : Digital Theater Systems
  30. Commercial name : DTS-HD Master Audio
  31. Codec ID : A_DTS
  32. Duration : 1 h 46 min
  33. Bit rate mode : Variable
  34. Bit rate : 1 846 kb/s
  35. Channel(s) : 6 channels
  36. Channel layout : C L R Ls Rs LFE
  37. Sampling rate : 48.0 kHz
  38. Frame rate : 93.750 FPS (512 SPF)
  39. Bit depth : 16 bits
  40. Compression mode : Lossless
  41. Delay relative to video : 2 ms
  42. Stream size : 1.37 GiB (13%)
  43. Title : DTS-HD MA 5.1
  44. Language : English
  45. Default : Yes
  46. Forced : No

  47. Audio #2
  48. ID : 3
  49. Format : AC-3
  50. Format/Info : Audio Coding 3
  51. Commercial name : Dolby Digital
  52. Codec ID : A_AC3
  53. Duration : 1 h 46 min
  54. Bit rate mode : Constant
  55. Bit rate : 384 kb/s
  56. Channel(s) : 6 channels
  57. Channel layout : L R C LFE Ls Rs
  58. Sampling rate : 48.0 kHz
  59. Frame rate : 31.250 FPS (1536 SPF)
  60. Compression mode : Lossy
  61. Stream size : 291 MiB (3%)
  62. Title : DD 5.1
  63. Language : English
  64. Service kind : Complete Main
  65. Default : No
  66. Forced : No

  67. Text
  68. ID : 4
  69. Format : UTF-8
  70. Codec ID : S_TEXT/UTF8
  71. Codec ID/Info : UTF-8 Plain Text
  72. Duration : 1 h 42 min
  73. Bit rate : 88 b/s
  74. Count of elements : 1776
  75. Stream size : 66.4 KiB (0%)
  76. Title : (SDH)
  77. Language : English
  78. Default : Yes
  79. Forced : No

  80. Menu
  81. 00:00:00.000 : Chapter 01
  82. 00:06:12.747 : Chapter 02
  83. 00:14:31.579 : Chapter 03
  84. 00:20:46.745 : Chapter 04
  85. 00:31:26.093 : Chapter 05
  86. 00:42:49.776 : Chapter 06
  87. 00:55:15.687 : Chapter 07
  88. 01:05:04.234 : Chapter 08
  89. 01:13:36.495 : Chapter 09
  90. 01:24:13.966 : Chapter 10
  91. 01:31:01.956 : Chapter 11
  92. 01:37:42.023 : Chapter 12
复制代码


马丁·路德·金与联邦调查局4k MLK.FBI.2020.2160p.WEB-DL.x265.10bit.SDR.DTS-HD.MA.5.1-4k纪录片下载
马丁·路德·金与联邦调查局4k MLK.FBI.2020.2160p.WEB-DL.x265.10bit.SDR.DTS-HD.MA.5.1【10.41GB】
[Hao4k]马丁·路德·金与联邦调查局4k MLK.FBI.2020.2160p.WEB-DL.x265.10bit.SDR.DTS.torrent (13.68 KB)
回复

使用道具 举报

全部回复9

dengke118 发表于 2021-8-27 09:06:13

dengke118 2

2021-8-27 09:06:13

谢谢分享,辛苦了楼主!
回复 支持 反对

使用道具 举报

bbgrnnji 发表于 2021-8-27 12:39:54

bbgrnnji 3

2021-8-27 12:39:54

纪录片好啊,谢谢
回复 支持 反对

使用道具 举报

wings117 发表于 2021-8-27 13:03:19

wings117 4

2021-8-27 13:03:19

值得一看,谢谢分享!
回复 支持 反对

使用道具 举报

bonna 发表于 2021-8-27 13:24:39

bonna 5

2021-8-27 13:24:39

这一定要看看。
回复 支持 反对

使用道具 举报

hbenzo 发表于 2021-8-28 10:50:59

hbenzo 6

2021-8-28 10:50:59

感觉还不错下来看看
回复 支持 反对

使用道具 举报

小菜菜鸟 发表于 2021-8-29 09:47:20

小菜菜鸟 7

2021-8-29 09:47:20

人物传记吗?马丁路德,黑人权利先锋者。
回复 支持 反对

使用道具 举报

气气气用气 发表于 2021-9-6 18:28:00 Hao4K手机版

气气气用气 8

2021-9-6 18:28:00

谢谢楼主 太赞了
回复 支持 反对

使用道具 举报

on09 发表于 2021-9-7 14:06:57

on09 9

2021-9-7 14:06:57

新手第一发,感谢!
回复 支持 反对

使用道具 举报

jinxiao9912 发表于 2021-9-11 21:22:21

jinxiao9912 10

2021-9-11 21:22:21

hccmdkl;dmfv
回复 支持 反对

使用道具 举报

   发表回复

您需要登录后才可以回帖 登录 | 立即注册

返回列表 本版积分规则

  • 在线客服

  • 返回顶部