微博 微信

Hao4K影音

电视剧频道
电视剧封面:
电视剧名: 全新樱桃味4k
年  代: 2021  
国  家: 美国
类  别: 恐怖 惊悚 剧情 悬疑 
语  言: 英语
字  幕: 英文原版
上映日期: 2021-08-13
文件格式: mkv    
视频效果: 4K(3840x2160)    
资源大小: 51.56 GB
片  长: -
导  演: Gandja Monteiro / 杰克·施莱尔 / 马特·索贝尔 / 尼克·安托斯卡 / 阿卡莎·史蒂文森
剧情简介: 为了拍出属于自己的电影,丽莎·诺娃,一位在1990年洛杉矶阳光普照但阴暗的世界里有抱负的电影导演,误入一个满是性爱、魔法、复仇及小猫的奇异幻境。
櫻桃新滋味/全新樱桃味4k Brand.New.Cherry.Flavour.S01.2160p.NF.WEBRip.x265.10bit.HDR.DDP5.1.Atmos美剧信息
  1. Video
  2. ID : 1
  3. Format : HEVC
  4. Format/Info : High Efficiency Video Coding
  5. Format profile : Main 10@L5.1@High
  6. HDR format : SMPTE ST 2086, HDR10 compatible
  7. Codec ID : V_MPEGH/ISO/HEVC
  8. Duration : 50 min 21 s
  9. Bit rate : 21.6 Mb/s
  10. Width : 3 840 pixels
  11. Height : 1 920 pixels
  12. Display aspect ratio : 2.000
  13. Frame rate mode : Constant
  14. Frame rate : 23.976 (24000/1001) FPS
  15. Color space : YUV
  16. Chroma subsampling : 4:2:0 (Type 2)
  17. Bit depth : 10 bits
  18. Bits/(Pixel*Frame) : 0.122
  19. Stream size : 7.60 GiB (96%)
  20. Writing library : x265 3.5+9-bf91444e0:[Windows][GCC 10.0.0][64 bit] 10bit
  21. Encoding settings : cpuid=1111039 / frame-threads=4 / numa-pools=16 / wpp / no-pmode / no-pme / no-psnr / no-ssim / log-level=2 / input-csp=1 / input-res=3840x1920 / interlace=0 / total-frames=0 / level-idc=51 / high-tier=1 / uhd-bd=0 / ref=4 / no-allow-non-conformance / repeat-headers / annexb / no-aud / no-eob / no-eos / no-hrd / info / hash=0 / no-temporal-layers / no-open-gop / min-keyint=23 / keyint=250 / gop-lookahead=0 / bframes=3 / b-adapt=2 / b-pyramid / bframe-bias=0 / rc-lookahead=20 / lookahead-slices=8 / scenecut=40 / hist-scenecut=0 / radl=0 / no-splice / no-intra-refresh / ctu=64 / min-cu-size=8 / no-rect / no-amp / max-tu-size=32 / tu-inter-depth=1 / tu-intra-depth=1 / limit-tu=0 / rdoq-level=0 / dynamic-rd=0.00 / no-ssim-rd / signhide / no-tskip / nr-intra=0 / nr-inter=0 / no-constrained-intra / no-strong-intra-smoothing / max-merge=3 / limit-refs=1 / no-limit-modes / me=1 / subme=2 / merange=57 / temporal-mvp / no-frame-dup / no-hme / weightp / no-weightb / no-analyze-src-pics / deblock=-3:-3 / no-sao / no-sao-non-deblock / rd=3 / selective-sao=0 / early-skip / rskip / no-fast-intra / no-tskip-fast / no-cu-lossless / b-intra / no-splitrd-skip / rdpenalty=0 / psy-rd=2.00 / psy-rdoq=0.00 / no-rd-refine / no-lossless / cbqpoffs=0 / crqpoffs=0 / rc=crf / crf=19.0 / qcomp=0.60 / qpstep=4 / stats-write=0 / stats-read=0 / vbv-maxrate=160000 / vbv-bufsize=160000 / vbv-init=0.9 / min-vbv-fullness=50.0 / max-vbv-fullness=80.0 / crf-max=0.0 / crf-min=0.0 / ipratio=1.40 / pbratio=1.30 / aq-mode=2 / aq-strength=1.00 / no-cutree / zone-count=0 / no-strict-cbr / qg-size=32 / no-rc-grain / qpmax=69 / qpmin=0 / no-const-vbv / sar=0 / overscan=0 / videoformat=5 / range=0 / colorprim=9 / transfer=16 / colormatrix=9 / chromaloc=1 / chromaloc-top=2 / chromaloc-bottom=2 / display-window=0 / master-display=G(13250,34500)B(7500,3000)R(34000,16000)WP(15635,16450)L(10000000,1) / cll=3863,204 / min-luma=0 / max-luma=1023 / log2-max-poc-lsb=8 / vui-timing-info / vui-hrd-info / slices=1 / no-opt-qp-pps / no-opt-ref-list-length-pps / no-multi-pass-opt-rps / scenecut-bias=0.05 / hist-threshold=0.03 / no-opt-cu-delta-qp / no-aq-motion / hdr10 / hdr10-opt / no-dhdr10-opt / no-idr-recovery-sei / analysis-reuse-level=0 / analysis-save-reuse-level=0 / analysis-load-reuse-level=0 / scale-factor=0 / refine-intra=0 / refine-inter=0 / refine-mv=1 / refine-ctu-distortion=0 / no-limit-sao / ctu-info=0 / no-lowpass-dct / refine-analysis-type=0 / copy-pic=1 / max-ausize-factor=1.0 / no-dynamic-refine / no-single-sei / no-hevc-aq / no-svt / no-field / qp-adaptation-range=1.00 / scenecut-aware-qp=0conformance-window-offsets / right=0 / bottom=0 / decoder-max-rate=0 / no-vbv-live-multi-pass
  22. Default : Yes
  23. Forced : No
  24. Color range : Limited
  25. Color primaries : BT.2020
  26. Transfer characteristics : PQ
  27. Matrix coefficients : BT.2020 non-constant
  28. Mastering display color primaries : Display P3
  29. Mastering display luminance : min: 0.0001 cd/m2, max: 1000 cd/m2
  30. Maximum Content Light Level : 3863 cd/m2
  31. Maximum Frame-Average Light Level : 204 cd/m2

  32. Audio
  33. ID : 2
  34. Format : E-AC-3 JOC
  35. Format/Info : Enhanced AC-3 with Joint Object Coding
  36. Commercial name : Dolby Digital Plus with Dolby Atmos
  37. Codec ID : A_EAC3
  38. Duration : 51 min 51 s
  39. Bit rate mode : Constant
  40. Bit rate : 768 kb/s
  41. Channel(s) : 6 channels
  42. Channel layout : L R C LFE Ls Rs
  43. Sampling rate : 48.0 kHz
  44. Frame rate : 31.250 FPS (1536 SPF)
  45. Compression mode : Lossy
  46. Delay relative to video : 28 ms
  47. Stream size : 285 MiB (4%)
  48. Title : English
  49. Language : English
  50. Service kind : Complete Main
  51. Default : Yes
  52. Forced : No
  53. Complexity index : 16
  54. Number of dynamic objects : 15
  55. Bed channel count : 1 channel
  56. Bed channel configuration : LFE

  57. Text #1
  58. ID : 3
  59. Format : UTF-8
  60. Codec ID : S_TEXT/UTF8
  61. Codec ID/Info : UTF-8 Plain Text
  62. Duration : 50 min 8 s
  63. Bit rate : 50 b/s
  64. Count of elements : 604
  65. Stream size : 18.7 KiB (0%)
  66. Title : SDH
  67. Language : English
  68. Default : No
  69. Forced : No

  70. Text #2
  71. ID : 4
  72. Format : UTF-8
  73. Codec ID : S_TEXT/UTF8
  74. Codec ID/Info : UTF-8 Plain Text
  75. Duration : 50 min 16 s
  76. Bit rate : 42 b/s
  77. Count of elements : 508
  78. Stream size : 15.7 KiB (0%)
  79. Title : Latin America
  80. Language : Spanish
  81. Default : No
  82. Forced : No

  83. Text #3
  84. ID : 5
  85. Format : UTF-8
  86. Codec ID : S_TEXT/UTF8
  87. Codec ID/Info : UTF-8 Plain Text
  88. Duration : 50 min 16 s
  89. Bit rate : 42 b/s
  90. Count of elements : 509
  91. Stream size : 15.8 KiB (0%)
  92. Language : Spanish
  93. Default : No
  94. Forced : No

  95. Text #4
  96. ID : 6
  97. Format : UTF-8
  98. Codec ID : S_TEXT/UTF8
  99. Codec ID/Info : UTF-8 Plain Text
  100. Duration : 50 min 16 s
  101. Bit rate : 42 b/s
  102. Count of elements : 509
  103. Stream size : 15.7 KiB (0%)
  104. Title : Brazilian
  105. Language : Portuguese
  106. Default : No
  107. Forced : No

  108. Text #5
  109. ID : 7
  110. Format : UTF-8
  111. Codec ID : S_TEXT/UTF8
  112. Codec ID/Info : UTF-8 Plain Text
  113. Duration : 50 min 16 s
  114. Bit rate : 43 b/s
  115. Count of elements : 501
  116. Stream size : 16.0 KiB (0%)
  117. Language : German
  118. Default : No
  119. Forced : No

  120. Text #6
  121. ID : 8
  122. Format : UTF-8
  123. Codec ID : S_TEXT/UTF8
  124. Codec ID/Info : UTF-8 Plain Text
  125. Duration : 50 min 16 s
  126. Bit rate : 43 b/s
  127. Count of elements : 498
  128. Stream size : 15.9 KiB (0%)
  129. Language : French
  130. Default : No
  131. Forced : No

  132. Text #7
  133. ID : 9
  134. Format : UTF-8
  135. Codec ID : S_TEXT/UTF8
  136. Codec ID/Info : UTF-8 Plain Text
  137. Duration : 50 min 16 s
  138. Bit rate : 42 b/s
  139. Count of elements : 504
  140. Stream size : 15.8 KiB (0%)
  141. Title : Simplified
  142. Language : Chinese
  143. Default : No
  144. Forced : No

  145. Text #8
  146. ID : 10
  147. Format : UTF-8
  148. Codec ID : S_TEXT/UTF8
  149. Codec ID/Info : UTF-8 Plain Text
  150. Duration : 50 min 16 s
  151. Bit rate : 44 b/s
  152. Count of elements : 512
  153. Stream size : 16.3 KiB (0%)
  154. Title : Traditional
  155. Language : Chinese
  156. Default : No
  157. Forced : No

  158. Text #9
  159. ID : 11
  160. Format : UTF-8
  161. Codec ID : S_TEXT/UTF8
  162. Codec ID/Info : UTF-8 Plain Text
  163. Duration : 50 min 16 s
  164. Bit rate : 75 b/s
  165. Count of elements : 510
  166. Stream size : 27.7 KiB (0%)
  167. Language : Arabic
  168. Default : No
  169. Forced : No

  170. Text #10
  171. ID : 12
  172. Format : UTF-8
  173. Codec ID : S_TEXT/UTF8
  174. Codec ID/Info : UTF-8 Plain Text
  175. Duration : 50 min 16 s
  176. Bit rate : 37 b/s
  177. Count of elements : 507
  178. Stream size : 14.0 KiB (0%)
  179. Language : Croatian
  180. Default : No
  181. Forced : No

  182. Text #11
  183. ID : 13
  184. Format : UTF-8
  185. Codec ID : S_TEXT/UTF8
  186. Codec ID/Info : UTF-8 Plain Text
  187. Duration : 50 min 16 s
  188. Bit rate : 42 b/s
  189. Count of elements : 509
  190. Stream size : 15.7 KiB (0%)
  191. Language : Czech
  192. Default : No
  193. Forced : No

  194. Text #12
  195. ID : 14
  196. Format : UTF-8
  197. Codec ID : S_TEXT/UTF8
  198. Codec ID/Info : UTF-8 Plain Text
  199. Duration : 50 min 16 s
  200. Bit rate : 39 b/s
  201. Count of elements : 508
  202. Stream size : 14.6 KiB (0%)
  203. Language : Danish
  204. Default : No
  205. Forced : No

  206. Text #13
  207. ID : 15
  208. Format : UTF-8
  209. Codec ID : S_TEXT/UTF8
  210. Codec ID/Info : UTF-8 Plain Text
  211. Duration : 50 min 16 s
  212. Bit rate : 38 b/s
  213. Count of elements : 483
  214. Stream size : 14.3 KiB (0%)
  215. Language : Dutch
  216. Default : No
  217. Forced : No

  218. Text #14
  219. ID : 16
  220. Format : UTF-8
  221. Codec ID : S_TEXT/UTF8
  222. Codec ID/Info : UTF-8 Plain Text
  223. Duration : 50 min 16 s
  224. Bit rate : 41 b/s
  225. Count of elements : 491
  226. Stream size : 15.1 KiB (0%)
  227. Language : Finnish
  228. Default : No
  229. Forced : No

  230. Text #15
  231. ID : 17
  232. Format : UTF-8
  233. Codec ID : S_TEXT/UTF8
  234. Codec ID/Info : UTF-8 Plain Text
  235. Duration : 50 min 16 s
  236. Bit rate : 72 b/s
  237. Count of elements : 510
  238. Stream size : 26.6 KiB (0%)
  239. Language : Greek
  240. Default : No
  241. Forced : No
复制代码

櫻桃新滋味/全新樱桃味4k Brand.New.Cherry.Flavour.S01.2160p.NF.WEBRip.x265.10bit.HDR.DDP5.1.Atmos美剧下载

全新樱桃味4k Brand.New.Cherry.Flavour.S01.2160p.NF.WEBRip.x265.10bit.HDR.DDP5.1.Atmos【51.56 GB】
[Hao4k]全新樱桃味4k Brand.New.Cherry.Flavour.S01.2160p.NF.WEBRip.x265.10bit.HDR..torrent (65.81 KB)
回复

使用道具 举报

   发表回复

您需要登录后才可以回帖 登录 | 立即注册

返回列表 本版积分规则

  • 在线客服

  • 返回顶部