微博 微信

Hao4K影音

电视剧频道
电视剧封面:
电视剧名: 说唱王戴夫 第一季4k
年  代: 2020  
国  家: 美国
类  别: 喜剧 
语  言: 英语
字  幕: 英文原版
上映日期: 2020-03-04
文件格式: mkv    
视频效果: 4K(3840x2160)    
资源大小: 29.23 GB
片  长: 30 分钟
导  演: 格雷格·莫托拉
剧情简介: FX将推出Rapper&喜剧明星Lil Dicky主演、聚焦他的生活的一部喜剧剧集,尚未定名。由Dicky和杰夫·谢弗(《联盟》《宋飞正传》)打造,凯文·哈特、格雷格·莫托拉(《太坏了》《新闻编辑室》)、Saladin Patterson(《生活大爆炸》)等执行制作,莫托拉执导首集。
  聚焦一个住在郊区神经兮兮的20多岁的年轻人,他坚信自己注定会成为有史以来最好的说唱歌手之一。现在他必须说服他最亲密的朋友,因为在他们的帮助下,他可能会真正说服世界。
戴夫 / 呆福/说唱王戴夫 第一季4k DAVE.S01.2160p.WEBRip.DDP5.1.x265美剧信息
  1. Video
  2. ID : 1
  3. Format : HEVC
  4. Format/Info : High Efficiency Video Coding
  5. Format profile : Main 10@L5.1@Main
  6. Codec ID : V_MPEGH/ISO/HEVC
  7. Duration : 32 min 5 s
  8. Bit rate : 15.1 Mb/s
  9. Width : 3 840 pixels
  10. Height : 2 160 pixels
  11. Display aspect ratio : 16:9
  12. Frame rate mode : Constant
  13. Frame rate : 23.976 (24000/1001) FPS
  14. Color space : YUV
  15. Chroma subsampling : 4:2:0
  16. Bit depth : 10 bits
  17. Bits/(Pixel*Frame) : 0.076
  18. Stream size : 3.38 GiB (96%)
  19. Default : Yes
  20. Forced : No

  21. Audio
  22. ID : 2
  23. Format : E-AC-3
  24. Format/Info : Enhanced AC-3
  25. Commercial name : Dolby Digital Plus
  26. Codec ID : A_EAC3
  27. Duration : 32 min 5 s
  28. Bit rate mode : Constant
  29. Bit rate : 256 kb/s
  30. Channel(s) : 6 channels
  31. Channel layout : L R C LFE Ls Rs
  32. Sampling rate : 48.0 kHz
  33. Frame rate : 31.250 FPS (1536 SPF)
  34. Compression mode : Lossy
  35. Stream size : 58.8 MiB (2%)
  36. Language : English
  37. Service kind : Complete Main
  38. Default : Yes
  39. Forced : No

  40. Text
  41. ID : 3
  42. Format : UTF-8
  43. Codec ID : S_TEXT/UTF8
  44. Codec ID/Info : UTF-8 Plain Text
  45. Title : English
  46. Language : English
  47. Default : No
  48. Forced : No
复制代码

戴夫 / 呆福/说唱王戴夫 第一季4k DAVE.S01.2160p.WEBRip.DDP5.1.x265美剧下载

说唱王戴夫 第一季4k DAVE.S01.2160p.WEBRip.DDP5.1.x265【29.23 GB】
[Hao4k]说唱王戴夫 第一季4k DAVE.S01.2160p.WEBRip.DDP5.1.x265-GGEZ.torrent (37.73 KB)
回复

使用道具 举报

   发表回复

您需要登录后才可以回帖 登录 | 立即注册

返回列表 本版积分规则

  • 在线客服

  • 返回顶部