微博 微信

Hao4K影音

电视剧频道
电视剧封面:
电视剧名: 开发者4k
年  代: 2020  
国  家: 美国
类  别: 科幻 惊悚 剧情 
语  言: 英语
字  幕: 英文原版
上映日期: 2020-03-05
文件格式: mkv    
视频效果: 4K(3840x2160)    
资源大小: 40.00 GB
片  长: 57 分钟
导  演: 亚历克斯·加兰
剧情简介: 《机械姬 Ex Machina》及《湮灭 Annihilation》的导演Alex Garland宣布为Hulu制作剧集《开发者 Devs》并获得预订,这部8集限定剧将由Alex Garland编写剧本及执导,剧中讲述一个年轻电脑工程师Lily于旧金山的顶尖科技公司工作,她 决心调查雇主的秘密开发部门,因为Lily认为这与男友的失踪有所关联。
  Sonoya Mizuno﹑Nick Offerman﹑Jin Ha﹑Zach Grenier﹑ Stephen McKinley Henderson﹑Cailee Spaeny及Alison Pill皆加盟剧组,水野索诺亚/ Sonoya Mizuno饰演女主Lily﹑Nick Offerman饰演Amaya的CEO Forest,对公司秘密开发部门有所痴迷﹑Jin Ha饰演一个天才网络安全专家,女主前男友。
  Zach Grenier饰演Kenton,Amaya的安保主管﹑Stephen McKinley Henderson饰演Amaya秘密开发部门的其中一名顶尖技术人员Stewart﹑Cailee Spaeny饰演Amaya秘密开发部门的员工Lyndon,年轻聪明的她有点固执﹑Alison Pill饰演Amaya二把手Katie,受Forest提携的量子物理学家。
开发者4k Devs.S01.2160p.WEBRip.DDP5.1.x265美剧信息
  1. Video
  2. ID : 1
  3. Format : HEVC
  4. Format/Info : High Efficiency Video Coding
  5. Format profile : Main 10@L5.1@Main
  6. Codec ID : V_MPEGH/ISO/HEVC
  7. Duration : 56 min 45 s
  8. Bit rate : 14.3 Mb/s
  9. Width : 3 840 pixels
  10. Height : 2 160 pixels
  11. Display aspect ratio : 16:9
  12. Frame rate mode : Constant
  13. Frame rate : 23.976 (24000/1001) FPS
  14. Color space : YUV
  15. Chroma subsampling : 4:2:0
  16. Bit depth : 10 bits
  17. Bits/(Pixel*Frame) : 0.072
  18. Stream size : 5.68 GiB (96%)
  19. Default : Yes
  20. Forced : No

  21. Audio
  22. ID : 2
  23. Format : E-AC-3
  24. Format/Info : Enhanced AC-3
  25. Commercial name : Dolby Digital Plus
  26. Codec ID : A_EAC3
  27. Duration : 56 min 45 s
  28. Bit rate mode : Constant
  29. Bit rate : 256 kb/s
  30. Channel(s) : 6 channels
  31. Channel layout : L R C LFE Ls Rs
  32. Sampling rate : 48.0 kHz
  33. Frame rate : 31.250 FPS (1536 SPF)
  34. Compression mode : Lossy
  35. Delay relative to video : 24 ms
  36. Stream size : 104 MiB (2%)
  37. Language : English
  38. Service kind : Complete Main
  39. Default : Yes
  40. Forced : No

  41. Text
  42. ID : 3
  43. Format : UTF-8
  44. Codec ID : S_TEXT/UTF8
  45. Codec ID/Info : UTF-8 Plain Text
  46. Title : English
  47. Language : English
  48. Default : No
  49. Forced : No
复制代码

开发者4k Devs.S01.2160p.WEBRip.DDP5.1.x265美剧下载

开发者4k Devs.S01.2160p.WEBRip.DDP5.1.x265【40.00 GB】
[Hao4k]开发者4k Devs.S01.2160p.WEBRip.DDP5.1.x265-GGEZ.torrent (51.06 KB)
回复

使用道具 举报

全部回复1

yoyonano 发表于 2021-8-29 01:46:09

yoyonano 2

2021-8-29 01:46:09

哪里有对应的中文字幕呢?
回复 支持 反对

使用道具 举报

   发表回复

您需要登录后才可以回帖 登录 | 立即注册

返回列表 本版积分规则

  • 在线客服

  • 返回顶部