微博 微信

Hao4K影音

电视剧频道
电视剧封面:
电视剧名: 玛雅帮 第二季4k
年  代: 2019  
国  家: 美国
类  别: 犯罪 惊悚 剧情 
语  言: 英语
字  幕: 英文原版
上映日期: 2019-09-03
文件格式: mkv    
视频效果: 4K(3840x2160)    
资源大小: 59.31 GB
片  长: -
导  演: 凯文·唐林
剧情简介: FX日前宣布续订黑帮剧《玛雅帮》(Mayans MC)第二季,显然这家有线电视网对该剧当前的收视成绩非常认可。《玛雅帮》第二季预计于2019年回归.
边疆飙风族(台) / 玛雅摩托帮 / 混乱之子衍生剧/玛雅帮 第二季4k Mayans.M.C.S02.2160p.WEBRip.DDP5.1.x265美剧信息
  1. Video
  2. ID : 1
  3. Format : HEVC
  4. Format/Info : High Efficiency Video Coding
  5. Format profile : Main 10@L5.1@Main
  6. Codec ID : V_MPEGH/ISO/HEVC
  7. Duration : 1 h 13 min
  8. Bit rate : 14.2 Mb/s
  9. Width : 3 840 pixels
  10. Height : 2 160 pixels
  11. Display aspect ratio : 16:9
  12. Frame rate mode : Constant
  13. Frame rate : 23.976 (24000/1001) FPS
  14. Color space : YUV
  15. Chroma subsampling : 4:2:0
  16. Bit depth : 10 bits
  17. Bits/(Pixel*Frame) : 0.071
  18. Stream size : 7.32 GiB (96%)
  19. Default : Yes
  20. Forced : No

  21. Audio
  22. ID : 2
  23. Format : E-AC-3
  24. Format/Info : Enhanced AC-3
  25. Commercial name : Dolby Digital Plus
  26. Codec ID : A_EAC3
  27. Duration : 1 h 13 min
  28. Bit rate mode : Constant
  29. Bit rate : 256 kb/s
  30. Channel(s) : 6 channels
  31. Channel layout : L R C LFE Ls Rs
  32. Sampling rate : 48.0 kHz
  33. Frame rate : 31.250 FPS (1536 SPF)
  34. Compression mode : Lossy
  35. Delay relative to video : 24 ms
  36. Stream size : 135 MiB (2%)
  37. Language : English
  38. Service kind : Complete Main
  39. Default : Yes
  40. Forced : No

  41. Text
  42. ID : 3
  43. Format : UTF-8
  44. Codec ID : S_TEXT/UTF8
  45. Codec ID/Info : UTF-8 Plain Text
  46. Title : English
  47. Language : English
  48. Default : No
  49. Forced : No
复制代码

边疆飙风族(台) / 玛雅摩托帮 / 混乱之子衍生剧/玛雅帮 第二季4k Mayans.M.C.S02.2160p.WEBRip.DDP5.1.x265美剧下载

玛雅帮 第一季4k Mayans.M.C.S01.2160p.HULU.WEB-DL.x265.10bit.HDR.DDP5.1【70.19 GB】
玛雅帮 第一季4kMayans.M.C.S01.2160p.HULU.WEB-DL.x265.10bit.HDR.DDP5.1-182K.torrent (89.28 KB)
回复

使用道具 举报

   发表回复

您需要登录后才可以回帖 登录 | 立即注册

返回列表 本版积分规则

  • 在线客服

  • 返回顶部