微博 微信

Hao4K影音

电影频道
电影封面:
片  名: 度假伙伴4K
电影分类: 剧情 喜剧 
国  家: 美国 
年  代: 2021年
分 辨 率: 4K(3840x2160)
电影格式: MKV|REMUX 
画质标准: HDR SDR 
音质编码: Dolby Digital Plus Audio 
电影声道: 5.1声道 其他 
帧数/FPS: 23.976 帧
电影语言: 中文简体 中文繁体 英文原版 
资源大小: 16.33 GB
导  演: 克雷·塔沃
豆瓣评分: 6.8 分
中文字幕: -
剧情简介:  A couple meets up with another couple while on vacation in Mexico, but their friendship takes an awkward turn when they get back home.
度假夫妻档/度假伙伴4K.Vacation.Friends.2021.2160p.WEB-DL.x265.10bit.HDR.DDP5.1-4k电影信息
  1. Video
  2. ID : 1
  3. Format : HEVC
  4. Format/Info : High Efficiency Video Coding
  5. Format profile : Main 10@L5@Main
  6. Codec ID : V_MPEGH/ISO/HEVC
  7. Duration : 1 h 43 min
  8. Bit rate : 22.3 Mb/s
  9. Width : 3 840 pixels
  10. Height : 2 160 pixels
  11. Display aspect ratio : 16:9
  12. Frame rate mode : Constant
  13. Frame rate : 24.000 FPS
  14. Color space : YUV
  15. Chroma subsampling : 4:2:0
  16. Bit depth : 10 bits
  17. Bits/(Pixel*Frame) : 0.112
  18. Stream size : 16.1 GiB (99%)
  19. Writing library : x265 3.5:[Linux][GCC 7.5.0][64 bit] 10bit
  20. Encoding settings : cpuid=1111039 / frame-threads=1 / wpp / no-pmode / no-pme / no-psnr / no-ssim / log-level=2 / input-csp=1 / input-res=3840x2160 / interlace=0 / total-frames=0 / level-idc=50 / high-tier=0 / uhd-bd=0 / ref=3 / no-allow-non-conformance / repeat-headers / annexb / no-aud / no-hrd / info / hash=0 / no-temporal-layers / no-open-gop / min-keyint=48 / keyint=48 / gop-lookahead=0 / bframes=2 / b-adapt=1 / b-pyramid / bframe-bias=0 / rc-lookahead=48 / lookahead-slices=8 / scenecut=0 / hist-scenecut=0 / radl=0 / no-splice / no-intra-refresh / ctu=32 / min-cu-size=8 / no-rect / no-amp / max-tu-size=16 / tu-inter-depth=2 / tu-intra-depth=2 / limit-tu=0 / rdoq-level=1 / dynamic-rd=0.00 / no-ssim-rd / signhide / no-tskip / nr-intra=0 / nr-inter=0 / no-constrained-intra / no-strong-intra-smoothing / max-merge=3 / limit-refs=1 / no-limit-modes / me=1 / subme=2 / merange=44 / temporal-mvp / no-frame-dup / no-hme / weightp / no-weightb / no-analyze-src-pics / deblock=0:0 / no-sao / no-sao-non-deblock / rd=4 / selective-sao=0 / early-skip / rskip / no-fast-intra / no-tskip-fast / no-cu-lossless / b-intra / no-splitrd-skip / rdpenalty=1 / psy-rd=1.60 / psy-rdoq=5.00 / no-rd-refine / no-lossless / cbqpoffs=0 / crqpoffs=0 / rc=abr / bitrate=23000 / qcomp=0.75 / qpstep=4 / stats-write=0 / stats-read=0 / vbv-maxrate=25000 / vbv-bufsize=25000 / vbv-init=0.9 / ipratio=1.40 / pbratio=1.30 / aq-mode=3 / aq-strength=1.00 / no-cutree / zone-count=0 / no-strict-cbr / qg-size=32 / no-rc-grain / qpmax=69 / qpmin=0 / no-const-vbv / sar=1 / overscan=0 / videoformat=5 / range=0 / colorprim=9 / transfer=16 / colormatrix=9 / chromaloc=0 / display-window=0 / cll=0,0 / min-luma=0 / max-luma=1023 / log2-max-poc-lsb=8 / vui-timing-info / vui-hrd-info / slices=1 / no-opt-qp-pps / no-opt-ref-list-length-pps / no-multi-pass-opt-rps / scenecut-bias=0.00 / hist-threshold=0.01 / no-opt-cu-delta-qp / no-aq-motion / no-hdr10 / hdr10-opt / no-dhdr10-opt / no-idr-recovery-sei / analysis-reuse-level=0 / analysis-save-reuse-level=0 / analysis-load-reuse-level=0 / scale-factor=0 / refine-intra=0 / refine-inter=0 / refine-mv=1 / refine-ctu-distortion=0 / no-limit-sao / ctu-info=0 / no-lowpass-dct / refine-analysis-type=0 / copy-pic=1 / max-ausize-factor=1.0 / no-dynamic-refine / no-single-sei / no-hevc-aq / no-svt / no-field / qp-adaptation-range=1.00 / no-scenecut-aware-qpconformance-window-offsets / right=0 / bottom=0
  21. Default : Yes
  22. Forced : No
  23. Color range : Limited
  24. Color primaries : BT.2020
  25. Transfer characteristics : PQ
  26. Matrix coefficients : BT.2020 non-constant

  27. Audio
  28. ID : 2
  29. Format : E-AC-3
  30. Format/Info : Enhanced AC-3
  31. Commercial name : Dolby Digital Plus
  32. Codec ID : A_EAC3
  33. Duration : 1 h 43 min
  34. Bit rate mode : Constant
  35. Bit rate : 256 kb/s
  36. Channel(s) : 6 channels
  37. Channel layout : L R C LFE Ls Rs
  38. Sampling rate : 48.0 kHz
  39. Frame rate : 31.250 FPS (1536 SPF)
  40. Compression mode : Lossy
  41. Delay relative to video : 23 ms
  42. Stream size : 190 MiB (1%)
  43. Title : DDP 5.1
  44. Language : English
  45. Service kind : Complete Main
  46. Default : Yes
  47. Forced : No

  48. Text #1
  49. ID : 3
  50. Format : UTF-8
  51. Codec ID : S_TEXT/UTF8
  52. Codec ID/Info : UTF-8 Plain Text
  53. Duration : 1 h 37 min
  54. Bit rate : 109 b/s
  55. Count of elements : 2102
  56. Stream size : 77.7 KiB (0%)
  57. Title : SDH
  58. Language : English
  59. Default : Yes
  60. Forced : No

  61. Text #2
  62. ID : 4
  63. Format : UTF-8
  64. Codec ID : S_TEXT/UTF8
  65. Codec ID/Info : UTF-8 Plain Text
  66. Duration : 1 h 42 min
  67. Bit rate : 71 b/s
  68. Count of elements : 1685
  69. Stream size : 53.9 KiB (0%)
  70. Language : Finnish
  71. Default : No
  72. Forced : No

  73. Text #3
  74. ID : 5
  75. Format : UTF-8
  76. Codec ID : S_TEXT/UTF8
  77. Codec ID/Info : UTF-8 Plain Text
  78. Duration : 1 h 42 min
  79. Bit rate : 80 b/s
  80. Count of elements : 1835
  81. Stream size : 60.3 KiB (0%)
  82. Language : French
  83. Default : No
  84. Forced : No

  85. Text #4
  86. ID : 6
  87. Format : UTF-8
  88. Codec ID : S_TEXT/UTF8
  89. Codec ID/Info : UTF-8 Plain Text
  90. Duration : 1 h 42 min
  91. Bit rate : 84 b/s
  92. Count of elements : 1870
  93. Stream size : 63.6 KiB (0%)
  94. Language : Danish
  95. Default : No
  96. Forced : No

  97. Text #5
  98. ID : 7
  99. Format : UTF-8
  100. Codec ID : S_TEXT/UTF8
  101. Codec ID/Info : UTF-8 Plain Text
  102. Duration : 1 h 42 min
  103. Bit rate : 77 b/s
  104. Count of elements : 1830
  105. Stream size : 58.2 KiB (0%)
  106. Language : German
  107. Default : No
  108. Forced : No

  109. Text #6
  110. ID : 8
  111. Format : UTF-8
  112. Codec ID : S_TEXT/UTF8
  113. Codec ID/Info : UTF-8 Plain Text
  114. Duration : 1 h 42 min
  115. Bit rate : 75 b/s
  116. Count of elements : 1753
  117. Stream size : 56.8 KiB (0%)
  118. Language : Italian
  119. Default : No
  120. Forced : No

  121. Text #7
  122. ID : 9
  123. Format : UTF-8
  124. Codec ID : S_TEXT/UTF8
  125. Codec ID/Info : UTF-8 Plain Text
  126. Duration : 1 h 42 min
  127. Bit rate : 77 b/s
  128. Count of elements : 1816
  129. Stream size : 58.6 KiB (0%)
  130. Title : Brazilian
  131. Language : Portuguese
  132. Default : No
  133. Forced : No

  134. Text #8
  135. ID : 10
  136. Format : UTF-8
  137. Codec ID : S_TEXT/UTF8
  138. Codec ID/Info : UTF-8 Plain Text
  139. Duration : 1 h 42 min
  140. Bit rate : 70 b/s
  141. Count of elements : 1873
  142. Stream size : 53.2 KiB (0%)
  143. Language : Portuguese
  144. Default : No
  145. Forced : No

  146. Text #9
  147. ID : 11
  148. Format : UTF-8
  149. Codec ID : S_TEXT/UTF8
  150. Codec ID/Info : UTF-8 Plain Text
  151. Duration : 1 h 42 min
  152. Bit rate : 69 b/s
  153. Count of elements : 1529
  154. Stream size : 52.1 KiB (0%)
  155. Language : Dutch
  156. Default : No
  157. Forced : No

  158. Text #10
  159. ID : 12
  160. Format : UTF-8
  161. Codec ID : S_TEXT/UTF8
  162. Codec ID/Info : UTF-8 Plain Text
  163. Duration : 1 h 42 min
  164. Bit rate : 72 b/s
  165. Count of elements : 1824
  166. Stream size : 54.6 KiB (0%)
  167. Language : Polish
  168. Default : No
  169. Forced : No

  170. Text #11
  171. ID : 13
  172. Format : UTF-8
  173. Codec ID : S_TEXT/UTF8
  174. Codec ID/Info : UTF-8 Plain Text
  175. Duration : 1 h 42 min
  176. Bit rate : 77 b/s
  177. Count of elements : 1743
  178. Stream size : 58.4 KiB (0%)
  179. Title : European
  180. Language : Spanish
  181. Default : No
  182. Forced : No

  183. Text #12
  184. ID : 14
  185. Format : UTF-8
  186. Codec ID : S_TEXT/UTF8
  187. Codec ID/Info : UTF-8 Plain Text
  188. Duration : 1 h 42 min
  189. Bit rate : 72 b/s
  190. Count of elements : 1859
  191. Stream size : 54.3 KiB (0%)
  192. Language : Spanish
  193. Default : No
  194. Forced : No

  195. Text #13
  196. ID : 15
  197. Format : UTF-8
  198. Codec ID : S_TEXT/UTF8
  199. Codec ID/Info : UTF-8 Plain Text
  200. Duration : 1 h 42 min
  201. Bit rate : 95 b/s
  202. Count of elements : 1876
  203. Stream size : 71.4 KiB (0%)
  204. Language : Korean
  205. Default : No
  206. Forced : No

  207. Text #14
  208. ID : 16
  209. Format : UTF-8
  210. Codec ID : S_TEXT/UTF8
  211. Codec ID/Info : UTF-8 Plain Text
  212. Duration : 1 h 42 min
  213. Bit rate : 85 b/s
  214. Count of elements : 1876
  215. Stream size : 64.6 KiB (0%)
  216. Title : Simplified
  217. Language : Chinese
  218. Default : No
  219. Forced : No

  220. Text #15
  221. ID : 17
  222. Format : UTF-8
  223. Codec ID : S_TEXT/UTF8
  224. Codec ID/Info : UTF-8 Plain Text
  225. Duration : 1 h 42 min
  226. Bit rate : 76 b/s
  227. Count of elements : 1876
  228. Stream size : 57.8 KiB (0%)
  229. Title : Traditional
  230. Language : Chinese
  231. Default : No
  232. Forced : No

  233. Text #16
  234. ID : 18
  235. Format : UTF-8
  236. Codec ID : S_TEXT/UTF8
  237. Codec ID/Info : UTF-8 Plain Text
  238. Duration : 1 h 42 min
  239. Bit rate : 69 b/s
  240. Count of elements : 1760
  241. Stream size : 52.2 KiB (0%)
  242. Language : Norwegian Bokmal
  243. Default : No
  244. Forced : No

  245. Text #17
  246. ID : 19
  247. Format : UTF-8
  248. Codec ID : S_TEXT/UTF8
  249. Codec ID/Info : UTF-8 Plain Text
  250. Duration : 1 h 42 min
  251. Bit rate : 86 b/s
  252. Count of elements : 1872
  253. Stream size : 64.8 KiB (0%)
  254. Language : Swedish
  255. Default : No
  256. Forced : No
复制代码
度假夫妻档/度假伙伴4K.Vacation.Friends.2021.2160p.WEB-DL.x265.10bit.HDR.DDP5.1-4K电影下载

度假伙伴4K.Vacation.Friends.2021.2160p.WEB-DL.x265.10bit.HDR.DDP5.1-简繁中字【4K HDR 16.33 GB】
[Hao4K]度假伙伴4K.Vacation.Friends.2021.2160p.WEB-DL.x265.10bit.HDR.DDP5.1-SWTYBLZ.torrent (21.08 KB, 售价: 3 个K币)
回复

使用道具 举报

全部回复8

农夫舅舅 发表于 2021-8-27 20:10:35

农夫舅舅 2

2021-8-27 20:10:35

这个怎么样的??????????
回复 支持 反对

使用道具 举报

neon1991 发表于 2021-8-30 01:51:43

neon1991 3

2021-8-30 01:51:43

塞纳 现在拍了很多片啊,又自杀小队,速9什么的
回复 支持 反对

使用道具 举报

19820578081 发表于 2021-8-31 13:40:38

19820578081 4

2021-8-31 13:40:38

不错哦
回复 支持 反对

使用道具 举报

66孔子 发表于 2021-8-31 20:00:18

66孔子 5

2021-8-31 20:00:18

嗯难得有喜剧片发布
回复 支持 反对

使用道具 举报

qingyangm333 发表于 2021-8-31 20:37:04

qingyangm333 6

2021-8-31 20:37:04

这是塞纳?
回复 支持 反对

使用道具 举报

CLLOGC 发表于 2021-9-4 15:17:57

CLLOGC 7

2021-9-4 15:17:57

有自带字幕吗?
回复 支持 反对

使用道具 举报

think91 发表于 2021-9-16 20:30:00

think91 8

2021-9-16 20:30:00

谢谢分享
回复 支持 反对

使用道具 举报

dg226 发表于 7 天前

dg226 9

7 天前

谢谢楼主分享的喜剧电影
回复 支持 反对

使用道具 举报

   发表回复

您需要登录后才可以回帖 登录 | 立即注册

返回列表 本版积分规则

  • 在线客服

  • 返回顶部