微博 微信

Hao4K影音

电影频道
电影封面:
片  名: 尊重4K
电影分类: 传记 
国  家: 美国 
年  代: 2021年
分 辨 率: 4K(3840x2160)
电影格式: MKV|REMUX 
画质标准: HDR SDR 
音质编码: Dolby Digital Plus Audio 
电影声道: 5.1声道 
帧数/FPS: 23.976 帧
电影语言: 英文原版 
资源大小: 25.68 GB
导  演: 丽莎·汤米
豆瓣评分: 7.0 分
中文字幕: -
剧情简介: 聚焦弗兰克林的崛起,她如何从在父亲的唱诗班开始歌唱的女孩,成为美国音乐史上极为重要的灵魂歌后。
灵魂心声(台)/尊重4K.Respect.2021.2160p.WEB-DL.x265.10bit.HDR.DDP5.1.x265-4k电影信息
  1. Video
  2. ID : 1
  3. Format : HEVC
  4. Format/Info : High Efficiency Video Coding
  5. Format profile : Main 10@L5@High
  6. HDR format : SMPTE ST 2086, HDR10 compatible
  7. Codec ID : V_MPEGH/ISO/HEVC
  8. Duration : 2 h 24 min
  9. Bit rate : 24.7 Mb/s
  10. Width : 3 840 pixels
  11. Height : 1 594 pixels
  12. Display aspect ratio : 2.40:1
  13. Frame rate mode : Constant
  14. Frame rate : 23.976 FPS
  15. Color space : YUV
  16. Chroma subsampling : 4:2:0 (Type 2)
  17. Bit depth : 10 bits
  18. Bits/(Pixel*Frame) : 0.169
  19. Stream size : 25.0 GiB (97%)
  20. Default : Yes
  21. Forced : No
  22. Color range : Limited
  23. Color primaries : BT.2020
  24. Transfer characteristics : PQ
  25. Matrix coefficients : BT.2020 non-constant
  26. Mastering display color primaries : BT.2020
  27. Mastering display luminance : min: 0.0050 cd/m2, max: 1000 cd/m2
  28. Maximum Content Light Level : 1614 cd/m2
  29. Maximum Frame-Average Light Level : 1005 cd/m2

  30. Audio
  31. ID : 2
  32. Format : E-AC-3
  33. Format/Info : Enhanced AC-3
  34. Commercial name : Dolby Digital Plus
  35. Codec ID : A_EAC3
  36. Duration : 2 h 24 min
  37. Bit rate mode : Constant
  38. Bit rate : 640 kb/s
  39. Channel(s) : 6 channels
  40. Channel layout : L R C LFE Ls Rs
  41. Sampling rate : 48.0 kHz
  42. Frame rate : 31.250 FPS (1536 SPF)
  43. Compression mode : Lossy
  44. Stream size : 663 MiB (3%)
  45. Language : English
  46. Service kind : Complete Main
  47. Default : Yes
  48. Forced : No

  49. Text #1
  50. ID : 3
  51. Format : UTF-8
  52. Codec ID : S_TEXT/UTF8
  53. Codec ID/Info : UTF-8 Plain Text
  54. Duration : 2 h 23 min
  55. Bit rate : 45 b/s
  56. Count of elements : 1943
  57. Stream size : 47.5 KiB (0%)
  58. Title : English
  59. Language : English
  60. Default : Yes
  61. Forced : No

  62. Text #2
  63. ID : 4
  64. Format : UTF-8
  65. Codec ID : S_TEXT/UTF8
  66. Codec ID/Info : UTF-8 Plain Text
  67. Duration : 2 h 24 min
  68. Bit rate : 73 b/s
  69. Count of elements : 2549
  70. Stream size : 77.9 KiB (0%)
  71. Title : English [SDH]
  72. Language : English
  73. Default : No
  74. Forced : No

  75. Text #3
  76. ID : 5
  77. Format : UTF-8
  78. Codec ID : S_TEXT/UTF8
  79. Codec ID/Info : UTF-8 Plain Text
  80. Duration : 2 h 23 min
  81. Bit rate : 38 b/s
  82. Count of elements : 1537
  83. Stream size : 40.8 KiB (0%)
  84. Title : French
  85. Language : French
  86. Default : No
  87. Forced : No

  88. Text #4
  89. ID : 6
  90. Format : UTF-8
  91. Codec ID : S_TEXT/UTF8
  92. Codec ID/Info : UTF-8 Plain Text
  93. Duration : 2 h 17 min
  94. Bit rate : 44 b/s
  95. Count of elements : 1581
  96. Stream size : 44.5 KiB (0%)
  97. Title : Spanish
  98. Language : Spanish
  99. Default : No
  100. Forced : No
复制代码

灵魂心声(台)/尊重4K.Respect.2021.2160p.WEB-DL.x265.10bit.HDR.DDP5.1.x265-4K电影下载

尊重4K.Respect.2021.2160p.WEB-DL.x265.10bit.HDR.DDP5.1.x265-【4K HDR 25.68 GB】
[Hao4K]尊重4K.Respect.2021.2160p.WEB-DL.x265.10bit.HDR.DDP5.1.x265-NOGRP.torrent (32.74 KB, 售价: 3 个K币)
回复

使用道具 举报

全部回复7

thp181200 发表于 2021-8-27 19:47:58

thp181200 2

2021-8-27 19:47:58

好电影,谢谢分享
回复 支持 反对

使用道具 举报

dengke118 发表于 2021-8-28 09:07:58

dengke118 3

2021-8-28 09:07:58

不错的影片,谢谢分享,辛苦了!
回复 支持 反对

使用道具 举报

四眼天鸡 发表于 2021-8-28 15:45:46

四眼天鸡 4

2021-8-28 15:45:46

十分感谢  谢谢  十分感谢!!!
回复 支持 反对

使用道具 举报

shield0822 发表于 2021-8-30 00:04:14

shield0822 5

2021-8-30 00:04:14

没有字幕呀
回复 支持 反对

使用道具 举报

小菜菜鸟 发表于 2021-8-30 13:52:01

小菜菜鸟 6

2021-8-30 13:52:01

剧情片很有绿皮书那部电影的感觉,但是这部剧情弱了点。
回复 支持 反对

使用道具 举报

A13382222676 发表于 2021-8-31 08:17:26 Hao4K手机版

A13382222676 7

2021-8-31 08:17:26

评分7.0应该不错
回复 支持 反对

使用道具 举报

shyron 发表于 2021-9-1 19:40:57

shyron 8

2021-9-1 19:40:57

必须要膜拜
回复 支持 反对

使用道具 举报

   发表回复

您需要登录后才可以回帖 登录 | 立即注册

返回列表 本版积分规则

  • 在线客服

  • 返回顶部