微博 微信

Hao4K影音

电影频道
电影封面:
片  名: Gutterbee 4K
电影分类: 喜剧 
国  家: 其他 
年  代: 2019年
分 辨 率: 4K(3840x2160)
电影格式: MKV|REMUX 
画质标准: SDR 
音质编码: Dolby Digital Plus Audio 
电影声道: 5.1声道 
帧数/FPS: 23.976 帧
电影语言: 英文原版 
资源大小: 9.22 GB
导  演: 乌尔里奇·汤姆森
豆瓣评分: 6.3 分
中文字幕: -
剧情简介: Gutterbee is a character driven comedy about sausages and friendship. Set in small-town America, it\'s a story about two hopeless dreamers who join forces in a quest to erect the ultimate German sausage restaurant. Gutterbee is also a social satire about the nexus of identity fear, where religion becomes an intellectual cul-de-sac, and racism, homophobia and intolerance reign supreme.
American Sausage Standoff / Gutterbee 4K.2019.2160p.WEB-DL.x265.10bit.SDR.DD5.1.x265-4k电影信息
  1. Video
  2. ID : 1
  3. Format : HEVC
  4. Format/Info : High Efficiency Video Coding
  5. Format profile : Main 10@L5@High
  6. Codec ID : V_MPEGH/ISO/HEVC
  7. Duration : 1 h 48 min
  8. Bit rate : 11.8 Mb/s
  9. Width : 3 836 pixels
  10. Height : 1 592 pixels
  11. Display aspect ratio : 2.40:1
  12. Frame rate mode : Constant
  13. Frame rate : 23.976 FPS
  14. Color space : YUV
  15. Chroma subsampling : 4:2:0
  16. Bit depth : 10 bits
  17. Bits/(Pixel*Frame) : 0.081
  18. Stream size : 8.93 GiB (97%)
  19. Default : Yes
  20. Forced : No
  21. Color range : Limited
  22. Color primaries : BT.709
  23. Transfer characteristics : BT.709
  24. Matrix coefficients : BT.709

  25. Audio
  26. ID : 2
  27. Format : AC-3
  28. Format/Info : Audio Coding 3
  29. Commercial name : Dolby Digital
  30. Codec ID : A_AC3
  31. Duration : 1 h 48 min
  32. Bit rate mode : Constant
  33. Bit rate : 384 kb/s
  34. Channel(s) : 6 channels
  35. Channel layout : L R C LFE Ls Rs
  36. Sampling rate : 48.0 kHz
  37. Frame rate : 31.250 FPS (1536 SPF)
  38. Compression mode : Lossy
  39. Stream size : 297 MiB (3%)
  40. Title : English
  41. Language : English
  42. Service kind : Complete Main
  43. Default : No
  44. Forced : No

  45. Text
  46. ID : 3
  47. Format : UTF-8
  48. Codec ID : S_TEXT/UTF8
  49. Codec ID/Info : UTF-8 Plain Text
  50. Duration : 1 h 47 min
  51. Bit rate : 63 b/s
  52. Count of elements : 1613
  53. Stream size : 50.0 KiB (0%)
  54. Language : English
  55. Default : Yes
  56. Forced : No
复制代码

American Sausage Standoff / Gutterbee 4K.2019.2160p.WEB-DL.x265.10bit.SDR.DD5.1.x265-4k电影下载

Gutterbee 4K.2019.2160p.WEB-DL.x265.10bit.SDR.DD5.1.x265【4K SDR 9.22 GB】
[Hao4K]Gutterbee4K.2019.2160p.WEB-DL.x265.10bit.SDR.DD5.1.x265-NOGRP-.torrent (23.7 KB)
回复

使用道具 举报

全部回复3

dengke118 发表于 2021-8-29 09:52:26

dengke118 2

2021-8-29 09:52:26

楼主真好,谢谢分享!!!
回复 支持 反对

使用道具 举报

黑红黄兔子 发表于 2021-8-29 22:21:54

黑红黄兔子 3

2021-8-29 22:21:54

这类电影有5.1省道加持,看它的欲望都会强烈一些。
回复 支持 反对

使用道具 举报

XSJ2021 发表于 2021-8-31 10:48:58

XSJ2021 4

2021-8-31 10:48:58

楼主辛苦,谢谢分享!
回复 支持 反对

使用道具 举报

   发表回复

您需要登录后才可以回帖 登录 | 立即注册

返回列表 本版积分规则

  • 在线客服

  • 返回顶部