微博 微信

Hao4K影音

电视剧频道
电视剧封面:
电视剧名: 美国夫人4k
年  代: 2020  
国  家: 美国
类  别: 剧情 
语  言: 英语
字  幕: -
上映日期: 2020-04-15
文件格式: mkv    
视频效果: 4K(3840x2160)    
资源大小: 49.18 GB
片  长: 45 分钟
导  演: 安娜·波顿 / 瑞安·弗雷克 / 阿马·阿桑特 / 劳瑞·德·克莱蒙特-托奈尔 / 加妮克扎·布拉沃
剧情简介: 20世纪70年代,保守派活动人士菲莉丝·施拉夫利(Phyllis Schlafly,凯特·布兰切特 饰)领导了一场出人意料的反对“平等权利宪法修正案(Equal Rights Amendment,ERA)”运动。让我们通过她与一众第二波女性主义者——格洛丽亚·斯泰纳姆(Gloria Steinem,罗丝·伯恩 饰)、贝蒂·弗里丹(Betty Friedan,特蕾西·奥尔曼 饰)、雪莉·奇瑟姆(Shirley Chisholm,乌佐·阿杜巴 饰)、贝拉·艾布扎格(Bella Abzug,玛戈·马丁戴尔 饰)和吉尔·拉克尔斯豪斯(Jill Ruckelshaus,伊丽莎白·班克斯 饰)——重新见证70年代文化战争中最重要的一场攻坚战是如何永远地改变了美国当代政治版图。
美国夫人4k Mrs.America.S01.2160p.WEBRip.DDP5.1.x265美剧信息
  1. Video
  2. ID : 1
  3. Format : HEVC
  4. Format/Info : High Efficiency Video Coding
  5. Format profile : Main 10@L5.1@Main
  6. Codec ID : V_MPEGH/ISO/HEVC
  7. Duration : 53 min 44 s
  8. Bit rate : 15.3 Mb/s
  9. Width : 3 840 pixels
  10. Height : 2 160 pixels
  11. Display aspect ratio : 16:9
  12. Frame rate mode : Constant
  13. Frame rate : 23.976 (24000/1001) FPS
  14. Color space : YUV
  15. Chroma subsampling : 4:2:0
  16. Bit depth : 10 bits
  17. Bits/(Pixel*Frame) : 0.077
  18. Stream size : 5.76 GiB (96%)
  19. Default : Yes
  20. Forced : No

  21. Audio
  22. ID : 2
  23. Format : E-AC-3
  24. Format/Info : Enhanced AC-3
  25. Commercial name : Dolby Digital Plus
  26. Codec ID : A_EAC3
  27. Duration : 53 min 44 s
  28. Bit rate mode : Constant
  29. Bit rate : 256 kb/s
  30. Channel(s) : 6 channels
  31. Channel layout : L R C LFE Ls Rs
  32. Sampling rate : 48.0 kHz
  33. Frame rate : 31.250 FPS (1536 SPF)
  34. Compression mode : Lossy
  35. Delay relative to video : 24 ms
  36. Stream size : 98.4 MiB (2%)
  37. Language : English
  38. Service kind : Complete Main
  39. Default : Yes
  40. Forced : No

  41. Text
  42. ID : 3
  43. Format : UTF-8
  44. Codec ID : S_TEXT/UTF8
  45. Codec ID/Info : UTF-8 Plain Text
  46. Title : English
  47. Language : English
  48. Default : No
  49. Forced : No
复制代码

美国夫人4k Mrs.America.S01.2160p.WEBRip.DDP5.1.x265美剧下载
美国夫人4k Mrs.America.S01.2160p.WEBRip.DDP5.1.x265【49.18 GB】
[Hao4k]美国夫人4k Mrs.America.S01.2160p.WEBRip.DDP5.1.x265-GGWP.torrent (62.68 KB)
回复

使用道具 举报

   发表回复

您需要登录后才可以回帖 登录 | 立即注册

返回列表 本版积分规则

  • 在线客服

  • 返回顶部