微博 微信

Hao4K影音

电视剧频道
电视剧封面:
电视剧名: 笔写青春4k
年  代: 2020  
国  家: 美国
类  别: 喜剧 
语  言: 英语
字  幕: -
上映日期: 2020-09-18
文件格式: mkv    
视频效果: 4K(3840x2160)    
资源大小: 29.35 GB
片  长: -
导  演: 山姆·兹维布尔曼
剧情简介: Hulu 预订成人向校园喜剧《PEN15》,每集三十分钟共十集,由《随性所欲》女星Maya Erskine与《私家法医》女星Anna Konkle共同主创与主演,两人将在剧中演出十三岁的自己。
  《PEN15》背景设定在 2000 年的某间中学,描述正值发育期的十三岁主角(美国 校园里有个梗,如果被问「你愿不愿意加入pen15俱乐部?」,如果说愿意对方就会恶作剧地把「penis」写在你手上)。
笔写青春4k PEN15.S01.2160p.WEBRip.x265.10bit.SDR.DDP5.1美剧信息
  1. Video
  2. ID : 1
  3. Format : HEVC
  4. Format/Info : High Efficiency Video Coding
  5. Format profile : Main 10@L5.1@Main
  6. Codec ID : V_MPEGH/ISO/HEVC
  7. Duration : 28 min 39 s
  8. Bit rate : 14.3 Mb/s
  9. Width : 3 840 pixels
  10. Height : 2 160 pixels
  11. Display aspect ratio : 16:9
  12. Frame rate mode : Constant
  13. Frame rate : 23.976 (23976/1000) FPS
  14. Color space : YUV
  15. Chroma subsampling : 4:2:0
  16. Bit depth : 10 bits
  17. Bits/(Pixel*Frame) : 0.072
  18. Stream size : 2.86 GiB (95%)
  19. Language : English
  20. Default : Yes
  21. Forced : No
  22. Color range : Limited
  23. Color primaries : BT.709
  24. Transfer characteristics : BT.709
  25. Matrix coefficients : BT.709

  26. Audio
  27. ID : 2
  28. Format : E-AC-3
  29. Format/Info : Enhanced AC-3
  30. Commercial name : Dolby Digital Plus
  31. Codec ID : A_EAC3
  32. Duration : 28 min 39 s
  33. Bit rate mode : Constant
  34. Bit rate : 448 kb/s
  35. Channel(s) : 6 channels
  36. Channel layout : L R C LFE Ls Rs
  37. Sampling rate : 48.0 kHz
  38. Frame rate : 31.250 FPS (1536 SPF)
  39. Compression mode : Lossy
  40. Stream size : 91.8 MiB (3%)
  41. Language : English
  42. Service kind : Complete Main
  43. Default : Yes
  44. Forced : No

  45. Text #1
  46. ID : 3
  47. Format : UTF-8
  48. Codec ID : S_TEXT/UTF8
  49. Codec ID/Info : UTF-8 Plain Text
  50. Title : English
  51. Language : English
  52. Default : No
  53. Forced : No

  54. Text #2
  55. ID : 4
  56. Format : UTF-8
  57. Codec ID : S_TEXT/UTF8
  58. Codec ID/Info : UTF-8 Plain Text
  59. Title : English (SDH)
  60. Language : English
  61. Default : No
  62. Forced : No
复制代码

笔写青春4k PEN15.S01.2160p.WEBRip.x265.10bit.SDR.DDP5.1美剧下载
笔写青春4k PEN15.S01.2160p.WEBRip.x265.10bit.SDR.DDP5.1【29.35 GB】
[Hao4k]笔写青春 第一季4k PEN15.S01.2160p.WEBRip.x265.10bit.SDR.DDP5.1-DEFLATE.torrent (74.5 KB)
回复

使用道具 举报

   发表回复

您需要登录后才可以回帖 登录 | 立即注册

返回列表 本版积分规则

  • 在线客服

  • 返回顶部