微博 微信

Hao4K影音

电视剧频道
电视剧封面:
电视剧名: 救赎犬4k
年  代: 2021  
国  家: 美国
类  别: 犯罪 喜剧 
语  言: 英语
字  幕: 英文原版
上映日期: 2021-08-09
文件格式: mkv    
视频效果: 4K(3840x2160)    
资源大小: -
片  长: 30 分钟
导  演: 塔伊加·维迪提 / 斯特林·哈乔
剧情简介: 塔伊加·维迪提将为FX再制作一部喜剧《救赎犬》(Reservation Dogs,暂译),每集半个小时,本剧讲述俄克拉荷马州小镇的四位印第安原住民少年,整天惹事的同时又打击犯罪的故事。试播集将由塔伊加·维迪提和斯特林·哈乔共同执导,他们同时担任编剧,维迪提还将出任监制之一。
保留地之犬/救赎犬4k Reservation.Dogs.S01E01.2160p.HULU.WEBRip.DDP5.1.x265美剧信息
  1. Video
  2. ID : 1
  3. Format : HEVC
  4. Format/Info : High Efficiency Video Coding
  5. Format profile : Main 10@L5.1@Main
  6. Codec ID : V_MPEGH/ISO/HEVC
  7. Duration : 29 min 9 s
  8. Bit rate : 15.6 Mb/s
  9. Width : 3 840 pixels
  10. Height : 2 160 pixels
  11. Display aspect ratio : 16:9
  12. Frame rate mode : Constant
  13. Frame rate : 23.976 (24000/1001) FPS
  14. Color space : YUV
  15. Chroma subsampling : 4:2:0
  16. Bit depth : 10 bits
  17. Bits/(Pixel*Frame) : 0.079
  18. Stream size : 3.18 GiB (98%)
  19. Default : Yes
  20. Forced : No

  21. Audio
  22. ID : 2
  23. Format : E-AC-3
  24. Format/Info : Enhanced AC-3
  25. Commercial name : Dolby Digital Plus
  26. Codec ID : A_EAC3
  27. Duration : 29 min 9 s
  28. Bit rate mode : Constant
  29. Bit rate : 256 kb/s
  30. Channel(s) : 6 channels
  31. Channel layout : L R C LFE Ls Rs
  32. Sampling rate : 48.0 kHz
  33. Frame rate : 31.250 FPS (1536 SPF)
  34. Compression mode : Lossy
  35. Stream size : 53.4 MiB (2%)
  36. Language : English
  37. Service kind : Complete Main
  38. Default : Yes
  39. Forced : No

  40. Text #1
  41. ID : 3
  42. Format : UTF-8
  43. Codec ID : S_TEXT/UTF8
  44. Codec ID/Info : UTF-8 Plain Text
  45. Duration : 28 min 51 s
  46. Bit rate : 81 b/s
  47. Count of elements : 525
  48. Stream size : 17.2 KiB (0%)
  49. Language : English
  50. Default : No
  51. Forced : No

  52. Text #2
  53. ID : 4
  54. Format : UTF-8
  55. Codec ID : S_TEXT/UTF8
  56. Codec ID/Info : UTF-8 Plain Text
  57. Duration : 28 min 53 s
  58. Bit rate : 95 b/s
  59. Count of elements : 636
  60. Stream size : 20.2 KiB (0%)
  61. Title : SDH
  62. Language : English
  63. Default : No
  64. Forced : No

  65. Menu
  66. 00:08:00.000 : Chapter 1
  67. 00:17:15.000 : Chapter 2
  68. 00:22:53.000 : Chapter 3
复制代码

保留地之犬/救赎犬4k Reservation.Dogs.S01E01.2160p.HULU.WEBRip.DDP5.1.x265美剧下载

救赎犬4k Reservation.Dogs.S01E01.2160p.HULU.WEBRip.DDP5.1.x265【3.24 GB】
[Hao4k]救赎犬4k Reservation.Dogs.S01E01.2160p.HULU.WEBRip.DDP5.1.x265-FLUX.torrent (16.83 KB)
回复

使用道具 举报

   发表回复

您需要登录后才可以回帖 登录 | 立即注册

返回列表 本版积分规则

  • 在线客服

  • 返回顶部