微博 微信

Hao4K影音

电视剧频道
电视剧封面:
电视剧名: 娃娃脸 第一季4k
年  代: 2019  
国  家: 美国
类  别: 喜剧 
语  言: 英语
字  幕: 英文原版
上映日期: 2019-11-15
文件格式: mkv    
视频效果: 4K(3840x2160)    
资源大小: 17.49 GB
片  长: 7.4 分钟
导  演: 斯蒂芬妮·莱恩 / 阿勒西娅·琼斯
剧情简介:  Hulu预定“Max”凯特·戴琳斯主演的《娃娃脸》首季10集,该剧讲述凯特饰演的年轻女孩遭男友抛弃,她必须重新回到恋爱期间根本无暇顾及的姐妹团之中,和一众塑料花姐妹“重修旧好”。马特·斯派克([英格丽向西行])将执导本剧的首集,玛格特·罗比则将以制片人身份加入本剧制作团队。该剧计划于明年开始制作。
娃娃脸 第一季4k Dollface.S01.2160p.HULU.WEB-DL.x265.10bit.HDR10Plus.DDP5.1美剧信息
  1. Video
  2. ID : 1
  3. Format : HEVC
  4. Format/Info : High Efficiency Video Coding
  5. Format profile : Main 10@L5.1@Main
  6. HDR format : Dolby Vision, Version 1.0, dvhe.08.06, BL+RPU, HDR10 compatible / SMPTE ST 2094 App 4, Version 1, HDR10+ Profile B compatible
  7. Codec ID : V_MPEGH/ISO/HEVC
  8. Duration : 31 min 38 s
  9. Bit rate : 10.3 Mb/s
  10. Width : 3 840 pixels
  11. Height : 2 160 pixels
  12. Display aspect ratio : 16:9
  13. Frame rate mode : Constant
  14. Frame rate : 23.976 (24000/1001) FPS
  15. Color space : YUV
  16. Chroma subsampling : 4:2:0 (Type 2)
  17. Bit depth : 10 bits
  18. Bits/(Pixel*Frame) : 0.052
  19. Stream size : 2.28 GiB (98%)
  20. Default : Yes
  21. Forced : No
  22. Color range : Limited
  23. Color primaries : BT.2020
  24. Transfer characteristics : PQ
  25. Matrix coefficients : BT.2020 non-constant
  26. Mastering display color primaries : Display P3
  27. Mastering display luminance : min: 0.0001 cd/m2, max: 1000 cd/m2
  28. Maximum Content Light Level : 1000 cd/m2
  29. Maximum Frame-Average Light Level : 530 cd/m2

  30. Audio
  31. ID : 2
  32. Format : E-AC-3
  33. Format/Info : Enhanced AC-3
  34. Commercial name : Dolby Digital Plus
  35. Codec ID : A_EAC3
  36. Duration : 31 min 38 s
  37. Bit rate mode : Constant
  38. Bit rate : 256 kb/s
  39. Channel(s) : 6 channels
  40. Channel layout : L R C LFE Ls Rs
  41. Sampling rate : 48.0 kHz
  42. Frame rate : 31.250 FPS (1536 SPF)
  43. Compression mode : Lossy
  44. Stream size : 57.9 MiB (2%)
  45. Language : English
  46. Service kind : Complete Main
  47. Default : Yes
  48. Forced : No

  49. Text #1
  50. ID : 3
  51. Format : UTF-8
  52. Codec ID : S_TEXT/UTF8
  53. Codec ID/Info : UTF-8 Plain Text
  54. Duration : 28 min 42 s
  55. Bit rate : 102 b/s
  56. Count of elements : 515
  57. Stream size : 21.5 KiB (0%)
  58. Language : English
  59. Default : No
  60. Forced : No

  61. Text #2
  62. ID : 4
  63. Format : UTF-8
  64. Codec ID : S_TEXT/UTF8
  65. Codec ID/Info : UTF-8 Plain Text
  66. Duration : 31 min 23 s
  67. Bit rate : 107 b/s
  68. Count of elements : 620
  69. Stream size : 24.6 KiB (0%)
  70. Title : SDH
  71. Language : English
  72. Default : No
  73. Forced : No

  74. Text #3
  75. ID : 5
  76. Format : UTF-8
  77. Codec ID : S_TEXT/UTF8
  78. Codec ID/Info : UTF-8 Plain Text
  79. Duration : 30 min 39 s
  80. Bit rate : 98 b/s
  81. Count of elements : 529
  82. Stream size : 22.2 KiB (0%)
  83. Title : SDH
  84. Language : Spanish
  85. Default : No
  86. Forced : No

  87. Menu
  88. 00:10:10.000 : Chapter 1
  89. 00:18:10.000 : Chapter 2
  90. 00:23:34.000 : Chapter 3
  91. 00:30:39.000 : Chapter 4 - Credits
复制代码

娃娃脸 第一季4k Dollface.S01.2160p.HULU.WEB-DL.x265.10bit.HDR10Plus.DDP5.1美剧下载
娃娃脸 第一季4k Dollface.S01.2160p.HULU.WEB-DL.x265.10bit.HDR10Plus.DDP5.1【17.49 GB】
[Hao4k]娃娃脸 第一季4k Dollface.S01.2160p.HULU.WEB-DL.x265.10bit.HDR10Plus.DDP5..torrent (23.31 KB)
回复

使用道具 举报

全部回复1

jotiger 发表于 2021-8-31 06:25:06

jotiger 2

2021-8-31 06:25:06

破产姐妹后好久没有看这种喜剧了,感谢楼主,下了看看.
回复 支持 反对

使用道具 举报

   发表回复

您需要登录后才可以回帖 登录 | 立即注册

返回列表 本版积分规则

  • 在线客服

  • 返回顶部