微博 微信

Hao4K影音

电视剧频道
电视剧封面:
电视剧名: 外星生命 第一季4k
年  代: 2019  
国  家: 美国
类  别: 科幻 冒险 惊悚 剧情 悬疑 
语  言: 英语
字  幕: 英文原版
上映日期: 2019-07-25
文件格式: mkv    
视频效果: 4K(3840x2160)    
资源大小: 49.88 GB
片  长: 60 分钟
导  演: 奥马尔·马德哈
剧情简介: 一件神秘的外星文物在地球登陆后,尼可·布雷肯里奇指挥官(凯蒂·萨克沃夫饰)必须带领人类首次的星际任务,抵达其发源星球,同时她的丈夫(贾斯汀·查特文饰)则留守地球并努力与该文物进行首次接触。 《外星生命》探索生命的奇迹,刻划在一个几乎毫无生命存在的宇宙,生命是如何宝贵,也描绘为了保护所爱,我们会如何竭心尽力。
天外寻源(港) / 异星空间(台)/外星生命 第一季4k Another.Life.2019.S01.2160p.NF.WEB-DL.x265.10bit.HDR.DDP5.1.Atmos美剧信息
  1. Video
  2. ID : 1
  3. Format : HEVC
  4. Format/Info : High Efficiency Video Coding
  5. Format profile : Main 10@L5@Main
  6. HDR format : SMPTE ST 2086, HDR10 compatible
  7. Codec ID : V_MPEGH/ISO/HEVC
  8. Duration : 1 h 1 min
  9. Bit rate : 15.0 Mb/s
  10. Width : 3 840 pixels
  11. Height : 2 160 pixels
  12. Display aspect ratio : 16:9
  13. Frame rate mode : Constant
  14. Frame rate : 23.976 (24000/1001) FPS
  15. Color space : YUV
  16. Chroma subsampling : 4:2:0 (Type 2)
  17. Bit depth : 10 bits
  18. Bits/(Pixel*Frame) : 0.075
  19. Stream size : 6.41 GiB (93%)
  20. Default : Yes
  21. Forced : No
  22. Color range : Limited
  23. Color primaries : BT.2020
  24. Transfer characteristics : PQ
  25. Matrix coefficients : BT.2020 non-constant
  26. Mastering display color primaries : Display P3
  27. Mastering display luminance : min: 0.0001 cd/m2, max: 1000 cd/m2
  28. Maximum Content Light Level : 7251 cd/m2
  29. Maximum Frame-Average Light Level : 1005 cd/m2

  30. Audio
  31. ID : 2
  32. Format : E-AC-3 JOC
  33. Format/Info : Enhanced AC-3 with Joint Object Coding
  34. Commercial name : Dolby Digital Plus with Dolby Atmos
  35. Codec ID : A_EAC3
  36. Duration : 1 h 1 min
  37. Bit rate mode : Constant
  38. Bit rate : 768 kb/s
  39. Channel(s) : 6 channels
  40. Channel layout : L R C LFE Ls Rs
  41. Sampling rate : 48.0 kHz
  42. Frame rate : 31.250 FPS (1536 SPF)
  43. Compression mode : Lossy
  44. Stream size : 337 MiB (5%)
  45. Language : English
  46. Service kind : Complete Main
  47. Default : Yes
  48. Forced : No
  49. Complexity index : 16
  50. Number of dynamic objects : 15
  51. Bed channel count : 1 channel
  52. Bed channel configuration : LFE

  53. Text #1
  54. ID : 3
  55. Format : UTF-8
  56. Codec ID : S_TEXT/UTF8
  57. Codec ID/Info : UTF-8 Plain Text
  58. Language : English
  59. Default : No
  60. Forced : No

  61. Text #2
  62. ID : 4
  63. Format : UTF-8
  64. Codec ID : S_TEXT/UTF8
  65. Codec ID/Info : UTF-8 Plain Text
  66. Title : SDH
  67. Language : English
  68. Default : No
  69. Forced : No

  70. Text #3
  71. ID : 5
  72. Format : UTF-8
  73. Codec ID : S_TEXT/UTF8
  74. Codec ID/Info : UTF-8 Plain Text
  75. Language : Arabic
  76. Default : No
  77. Forced : No

  78. Text #4
  79. ID : 6
  80. Format : UTF-8
  81. Codec ID : S_TEXT/UTF8
  82. Codec ID/Info : UTF-8 Plain Text
  83. Title : Simplified
  84. Language : Chinese
  85. Default : No
  86. Forced : No

  87. Text #5
  88. ID : 7
  89. Format : UTF-8
  90. Codec ID : S_TEXT/UTF8
  91. Codec ID/Info : UTF-8 Plain Text
  92. Title : Traditional
  93. Language : Chinese
  94. Default : No
  95. Forced : No

  96. Text #6
  97. ID : 8
  98. Format : UTF-8
  99. Codec ID : S_TEXT/UTF8
  100. Codec ID/Info : UTF-8 Plain Text
  101. Language : Danish
  102. Default : No
  103. Forced : No

  104. Text #7
  105. ID : 9
  106. Format : UTF-8
  107. Codec ID : S_TEXT/UTF8
  108. Codec ID/Info : UTF-8 Plain Text
  109. Language : Dutch
  110. Default : No
  111. Forced : No

  112. Text #8
  113. ID : 10
  114. Format : UTF-8
  115. Codec ID : S_TEXT/UTF8
  116. Codec ID/Info : UTF-8 Plain Text
  117. Language : Finnish
  118. Default : No
  119. Forced : No

  120. Text #9
  121. ID : 11
  122. Format : UTF-8
  123. Codec ID : S_TEXT/UTF8
  124. Codec ID/Info : UTF-8 Plain Text
  125. Language : French
  126. Default : No
  127. Forced : No

  128. Text #10
  129. ID : 12
  130. Format : UTF-8
  131. Codec ID : S_TEXT/UTF8
  132. Codec ID/Info : UTF-8 Plain Text
  133. Language : German
  134. Default : No
  135. Forced : No

  136. Text #11
  137. ID : 13
  138. Format : UTF-8
  139. Codec ID : S_TEXT/UTF8
  140. Codec ID/Info : UTF-8 Plain Text
  141. Language : Greek
  142. Default : No
  143. Forced : No

  144. Text #12
  145. ID : 14
  146. Format : UTF-8
  147. Codec ID : S_TEXT/UTF8
  148. Codec ID/Info : UTF-8 Plain Text
  149. Language : Hebrew
  150. Default : No
  151. Forced : No

  152. Text #13
  153. ID : 15
  154. Format : UTF-8
  155. Codec ID : S_TEXT/UTF8
  156. Codec ID/Info : UTF-8 Plain Text
  157. Language : Indonesian
  158. Default : No
  159. Forced : No

  160. Text #14
  161. ID : 16
  162. Format : UTF-8
  163. Codec ID : S_TEXT/UTF8
  164. Codec ID/Info : UTF-8 Plain Text
  165. Language : Italian
  166. Default : No
  167. Forced : No

  168. Text #15
  169. ID : 17
  170. Format : UTF-8
  171. Codec ID : S_TEXT/UTF8
  172. Codec ID/Info : UTF-8 Plain Text
  173. Language : Japanese
  174. Default : No
  175. Forced : No

  176. Text #16
  177. ID : 18
  178. Format : UTF-8
  179. Codec ID : S_TEXT/UTF8
  180. Codec ID/Info : UTF-8 Plain Text
  181. Language : Korean
  182. Default : No
  183. Forced : No
复制代码

天外寻源(港) / 异星空间(台)/外星生命 第一季4k Another.Life.2019.S01.2160p.NF.WEB-DL.x265.10bit.HDR.DDP5.1.Atmos美剧下载

外星生命 第一季4k Another.Life.2019.S01.2160p.NF.WEB-DL.x265.10bit.HDR.DDP5.1.Atmos【49.88 GB】
[Hao4k]外星生命 第一季4k Another.Life.2019.S01.2160p.NF.WEB-DL.x265.10bit.HDR.DD.torrent (64.13 KB)
回复

使用道具 举报

全部回复2

世爵39 发表于 2021-9-3 09:56:10

世爵39 2

2021-9-3 09:56:10

下载看看如何
回复 支持 反对

使用道具 举报

17774419373 发表于 2021-9-6 18:09:55

17774419373 3

2021-9-6 18:09:55

就喜欢外星人电影,谢谢。
回复 支持 反对

使用道具 举报

   发表回复

您需要登录后才可以回帖 登录 | 立即注册

返回列表 本版积分规则

  • 在线客服

  • 返回顶部