微博 微信

Hao4K影音

电视剧频道
电视剧封面:
电视剧名: 失恋排行榜4k
年  代: 2020  
国  家: 美国
类  别: 喜剧 
语  言: 英语
字  幕: 英文原版
上映日期: 2020-02-14
文件格式: mkv    
视频效果: 4K(3840x2160)    
资源大小: 32.84 GB
片  长: 34 分钟
导  演: 杰弗里·莱纳 / 娜塔莎·雷昂 / 杰西·派瑞兹 / 安德鲁·德扬
剧情简介: 佐伊·克罗维兹将主演并担任剧版《失恋排行榜》制片人。根据英国当代作家尼克·霍恩比的同名小说改编。该小说曾在2000年搬上大银幕,约翰·库萨克主演。剧集共10集,维罗妮卡·韦斯特、莎拉·库克尔卡操刀剧本。克罗维兹剧中扮演一个音乐发烧友,也是一个唱片店的老板,故事将围绕她的情感展开。据悉该剧集将在迪士尼即将推出的流媒体服务中亮相。
高保真/失恋排行榜4k High.Fidelity.S01.2160p.HULU.WEBRip.DDP5.1.x265美剧信息
  1. Video
  2. ID : 1
  3. Format : HEVC
  4. Format/Info : High Efficiency Video Coding
  5. Format profile : Main 10@L5.1@Main
  6. Codec ID : V_MPEGH/ISO/HEVC
  7. Duration : 34 min 13 s
  8. Bit rate : 15.8 Mb/s
  9. Width : 3 840 pixels
  10. Height : 2 160 pixels
  11. Display aspect ratio : 16:9
  12. Frame rate mode : Constant
  13. Frame rate : 23.976 (24000/1001) FPS
  14. Color space : YUV
  15. Chroma subsampling : 4:2:0
  16. Bit depth : 10 bits
  17. Bits/(Pixel*Frame) : 0.079
  18. Stream size : 3.77 GiB (98%)
  19. Default : Yes
  20. Forced : No

  21. Audio
  22. ID : 2
  23. Format : E-AC-3
  24. Format/Info : Enhanced AC-3
  25. Commercial name : Dolby Digital Plus
  26. Codec ID : A_EAC3
  27. Duration : 34 min 13 s
  28. Bit rate mode : Constant
  29. Bit rate : 256 kb/s
  30. Channel(s) : 6 channels
  31. Channel layout : L R C LFE Ls Rs
  32. Sampling rate : 48.0 kHz
  33. Frame rate : 31.250 FPS (1536 SPF)
  34. Compression mode : Lossy
  35. Stream size : 62.7 MiB (2%)
  36. Language : English
  37. Service kind : Complete Main
  38. Default : Yes
  39. Forced : No

  40. Text #1
  41. ID : 3
  42. Format : UTF-8
  43. Codec ID : S_TEXT/UTF8
  44. Codec ID/Info : UTF-8 Plain Text
  45. Duration : 33 min 59 s
  46. Bit rate : 93 b/s
  47. Count of elements : 750
  48. Stream size : 23.4 KiB (0%)
  49. Language : English
  50. Default : No
  51. Forced : No

  52. Text #2
  53. ID : 4
  54. Format : UTF-8
  55. Codec ID : S_TEXT/UTF8
  56. Codec ID/Info : UTF-8 Plain Text
  57. Duration : 33 min 50 s
  58. Bit rate : 89 b/s
  59. Count of elements : 723
  60. Stream size : 22.1 KiB (0%)
  61. Language : Spanish
  62. Default : No
  63. Forced : No
复制代码

高保真/失恋排行榜4k High.Fidelity.S01.2160p.HULU.WEBRip.DDP5.1.x265美剧下载
失恋排行榜4k High.Fidelity.S01.2160p.HULU.WEBRip.DDP5.1.x265【32.84 GB】
[Hao4k]失恋排行榜4k High.Fidelity.S01.2160p.HULU.WEBRip.DDP5.1.x265-AJP69.torrent (83.46 KB)
回复

使用道具 举报

   发表回复

您需要登录后才可以回帖 登录 | 立即注册

返回列表 本版积分规则

  • 在线客服

  • 返回顶部